<?xml version="1.0" standalone="no"?>
<!DOCTYPE svg PUBLIC "-//W3C//DTD SVG 1.1//EN" "http://www.w3.org/Graphics/SVG/1.1/DTD/svg11.dtd" >
<svg xmlns="http://www.w3.org/2000/svg">
<metadata></metadata>
<defs>
<font id="league_gothicregular" horiz-adv-x="724" >
<font-face units-per-em="2048" ascent="1505" descent="-543" />
<missing-glyph horiz-adv-x="315" />
<glyph horiz-adv-x="2048" />
<glyph horiz-adv-x="2048" />
<glyph unicode="&#xd;" horiz-adv-x="2048" />
<glyph unicode=" "  horiz-adv-x="315" />
<glyph unicode="&#x09;" horiz-adv-x="315" />
<glyph unicode="&#xa0;" horiz-adv-x="315" />
<glyph unicode="!" horiz-adv-x="387" d="M74 1505h239l-55 -1099h-129zM86 0v227h215v-227h-215z" />
<glyph unicode="&#x22;" horiz-adv-x="329" d="M57 1505h215l-30 -551h-154z" />
<glyph unicode="#" horiz-adv-x="1232" d="M49 438l27 195h198l37 258h-196l26 194h197l57 420h197l-57 -420h260l57 420h197l-58 -420h193l-27 -194h-192l-37 -258h190l-26 -195h-191l-59 -438h-197l60 438h-261l-59 -438h-197l60 438h-199zM471 633h260l37 258h-260z" />
<glyph unicode="$" horiz-adv-x="692" d="M37 358l192 13q11 -187 129 -187q89 0 93 185q0 28 -8.5 59.5t-19 55.5t-32.5 59.5t-34 53t-40 56l-36 49.5q-51 71 -74 105t-62 101t-56 127t-17 120q1 59 11.5 110t34 100t66.5 83.5t103 48.5v131h123v-125q201 -22 235 -282l-192 -25q-15 128 -93 125q-80 -3 -84 -162 q0 -28 8.5 -60t18 -55t32.5 -60t34 -53t42 -58t38 -52q6 -9 33 -47.5t37 -53t33.5 -51t33.5 -57t26.5 -55.5t23.5 -61.5t13 -59.5t6 -65q-4 -337 -245 -369v-217h-123v221q-65 11 -113 43.5t-76.5 81.5t-43 105t-17.5 122z" />
<glyph unicode="%" horiz-adv-x="1001" d="M55 902v9v437q0 4 0.5 10t3 24t8 34.5t17.5 36.5t28.5 34.5t43 24.5t59.5 10q44 0 76.5 -18t47.5 -43.5t23.5 -51t9.5 -43.5l1 -18v-437q0 -7 -1 -19t-9.5 -42.5t-23.5 -53.5t-47.5 -42t-76.5 -19q-33 0 -59.5 9.5t-43 25t-28.5 34.5t-17 38t-8.5 34.5t-3.5 25.5zM158 0 l553 1505h131l-547 -1505h-137zM178 905.5q-1 -5.5 1 -14t5 -16.5t11.5 -13.5t19.5 -5.5q16 0 25 14t10 28v13v437v6t-1.5 13.5t-5 16.5t-11 13t-17.5 6q-18 0 -27.5 -13.5t-9.5 -27.5v-14v-437q1 0 0 -5.5zM631 158v436q0 4 0.5 10t3 24.5t8 35t17.5 37t28.5 35t43 24.5 t59.5 10q44 0 76.5 -18t47.5 -44t23 -52t9 -44l1 -18v-436q0 -7 -1 -19t-9 -42t-23 -52.5t-47.5 -41.5t-76.5 -19q-45 0 -78.5 18t-48.5 43.5t-23 51t-9 43.5zM754 152q-1 -6 1 -14.5t5 -17t11.5 -14.5t19.5 -6q16 0 24.5 14.5t8.5 29.5l1 14v436q-1 0 0 5.5t-1 14t-5 16.5 t-10.5 13.5t-17.5 5.5q-18 0 -27.5 -13.5t-9.5 -27.5v-14v-436q1 0 0 -6z" />
<glyph unicode="&#x26;" horiz-adv-x="854" d="M49 315q0 79 27.5 163t58.5 139t84 135q-106 223 -106 442v18.5t5 46t13.5 65.5t28.5 68.5t47.5 65t73 46t102.5 18.5t102.5 -18t72 -47t46 -64t27.5 -70t12 -64t4 -47v-18q0 -91 -53.5 -197t-151.5 -237q78 -177 148 -285q34 95 47 211l176 -33q-3 -40 -10 -89.5 t-29 -129.5t-53 -139q56 -64 92 -76v-235q-22 0 -86 38t-123 101q-122 -139 -252 -139t-216.5 97.5t-86.5 233.5zM262 326q2 -65 30 -107.5t70 -42.5q36 0 64.5 21.5t60.5 64.5q-96 150 -174 295q-6 -10 -14.5 -28t-23 -78.5t-13.5 -124.5zM305 1194q0 -112 55 -246 q101 157 101 252q-1 1 0.5 15t-3 36.5t-11 43.5t-23.5 36t-41 15q-38 0 -57.5 -38t-19.5 -76z" />
<glyph unicode="'" horiz-adv-x="309" d="M45 1012l72 266h-72v227h215v-227l-113 -266h-102z" />
<glyph unicode="(" horiz-adv-x="561" d="M66 645q0 143 30 293t73 262t86 203t73 139l30 47l162 -84q-10 -14 -27.5 -41t-62 -115t-78.5 -182t-62 -237t-28 -285t26.5 -283t64.5 -240t76 -178t65 -118l26 -39l-162 -84q-12 18 -31.5 50t-70 133.5t-89 206.5t-70 257t-31.5 295z" />
<glyph unicode=")" horiz-adv-x="561" d="M41 -213q10 14 27.5 40.5t62 114.5t78.5 182t62 236.5t28 284.5t-26.5 283t-64.5 240.5t-76 178.5t-64 119l-27 39l162 84q12 -18 31.5 -50t70 -134t89.5 -207t70.5 -257.5t31.5 -295.5t-30 -293t-73.5 -261.5t-86.5 -202t-73 -138.5l-30 -47z" />
<glyph unicode="*" horiz-adv-x="677" d="M74 1251l43 148l164 -70l-19 176h154l-19 -176l164 70l43 -148l-172 -34l115 -138l-131 -80l-78 152l-76 -152l-131 80l115 138z" />
<glyph unicode="+" horiz-adv-x="1060" d="M74 649v172h370v346h172v-346h371v-172h-371v-346h-172v346h-370z" />
<glyph unicode="," horiz-adv-x="309" d="M45 0v227h215v-227l-113 -266h-102l72 266h-72z" />
<glyph unicode="-" horiz-adv-x="444" d="M74 455v194h297v-194h-297z" />
<glyph unicode="." horiz-adv-x="321" d="M53 0v227h215v-227h-215z" />
<glyph unicode="/" horiz-adv-x="720" d="M8 -147l543 1652h162l-537 -1652h-168z" />
<glyph unicode="0" d="M68 291v18v887q0 7 0.5 18.5t6 45.5t15.5 65t32 68.5t51.5 64.5t78.5 45.5t110 18.5t110 -18t78.5 -46.5t52 -63.5t32.5 -70t15.5 -63.5t5.5 -46.5l1 -18v-887q0 -7 -0.5 -18.5t-6 -45.5t-15.5 -64.5t-32 -68t-52 -64.5t-79 -45.5t-110 -18.5t-110 18t-78.5 46.5 t-51.5 63.5t-32 69.5t-15.5 63t-6.5 46.5zM289 297.5q0 -7.5 3.5 -26.5t10 -33.5t22 -26.5t37.5 -12t37.5 11.5t22.5 27.5t10.5 32t3.5 28v11v887v12t-3.5 26.5t-10.5 34t-22.5 26.5t-37.5 12q-35 0 -53 -27.5t-19 -55.5l-1 -28v-887v-11.5z" />
<glyph unicode="1" horiz-adv-x="475" d="M25 1180v141q52 10 95 33t67.5 48t42 48.5t24.5 39.5l6 15h133v-1505h-221v1180h-147z" />
<glyph unicode="2" horiz-adv-x="731" d="M55 0v219q15 22 39.5 61t88 153t112.5 220.5t90.5 241.5t44.5 238q0 184 -74 184q-73 0 -73 -184v-105h-222v105q0 65 7 118.5t27 105.5t52.5 87t85.5 56.5t123 21.5q295 0 295 -375q0 -108 -36 -242.5t-96.5 -268.5t-109.5 -229t-104 -188h350v-219h-600z" />
<glyph unicode="3" horiz-adv-x="686" d="M45 1071q0 47 1 79.5t7 83.5t16.5 86.5t31.5 76.5t50 66t74.5 42t102.5 17t103 -16.5t75 -41t50.5 -58.5t32 -64t17 -63t7.5 -50t1 -31q0 -161 -26 -252t-80 -145l-2 -2q73 -58 100 -161.5t27 -252.5q0 -15 -1 -35t-7.5 -61t-17.5 -78.5t-32.5 -80.5t-50.5 -74 t-75.5 -51.5t-102.5 -20.5q-57 0 -103 16.5t-76 42.5t-52 65.5t-33.5 76.5t-18.5 86t-8.5 84t-1.5 79h217q1 -150 17.5 -203t58.5 -53q17 0 29.5 7.5t20 24t12 31t6 41.5t2 42.5t0.5 44.5q0 20 1 59q1 121 -12 162q-22 68 -107 84l-50 6h-19v184q37 2 63 7t44.5 14t30 22 t18.5 31t9 40.5t3 50.5t0 62v14v13v15v33.5t-1 32.5t-2.5 33.5t-4.5 29.5t-8.5 27t-12.5 19t-17 14.5t-23 4.5q-21 0 -33 -10.5t-19.5 -42t-10 -77t-3.5 -126.5h-217z" />
<glyph unicode="4" horiz-adv-x="684" d="M25 328v194l323 983h221v-983h103v-194h-103v-328h-202v328h-342zM213 522h154v471v45h-13l-12 -45z" />
<glyph unicode="5" horiz-adv-x="704" d="M74 438h221v-59q0 -116 14.5 -159.5t52.5 -43.5q36 0 52 44.5t16 156.5v336q0 48 -18 79t-52 31t-60 -39.5t-26 -70.5h-186v792h535v-219h-344v-313q8 6 21 15t47 23.5t59 12.5q64 0 112 -28.5t72.5 -66t39 -86.5t18 -78t3.5 -52v-336q0 -36 -1.5 -66t-8.5 -72 t-18.5 -75.5t-33.5 -68.5t-51.5 -58t-74.5 -38t-101 -15t-101 15t-74.5 39t-51 62t-33 74.5t-18.5 86.5t-8.5 88t-1.5 89z" />
<glyph unicode="6" horiz-adv-x="700" d="M66 309v856q0 357 288 357q289 0 289 -357v-94h-221q0 161 -11.5 209.5t-56.5 48.5q-40 0 -53.5 -37t-13.5 -127v-268q60 37 110 37q47 0 85 -13.5t63 -34.5t44 -51t29 -58.5t16 -61t7.5 -55t1.5 -44.5v-307q0 -20 -1.5 -41t-8.5 -54.5t-18.5 -63t-33.5 -61t-51.5 -54 t-75 -37t-100.5 -14.5t-100.5 14.5t-75 37t-51 54t-33 61t-18.5 63t-8.5 54.5t-1.5 41zM287 244q0 -20 17 -44t50 -24q31 0 49.5 24.5t18.5 43.5v450q0 19 -18.5 43.5t-49.5 24.5t-48 -20.5t-19 -41.5v-456z" />
<glyph unicode="7" horiz-adv-x="589" d="M8 1286v219h557v-221l-221 -1284h-229l225 1286h-332z" />
<glyph unicode="8" horiz-adv-x="696" d="M53 322v176q0 86 29.5 165t85.5 132q-50 50 -76 123.5t-26 152.5v127q0 14 1 30.5t7 50.5t16 63.5t31.5 64t50 58.5t74 40.5t102.5 16.5t102.5 -16.5t74.5 -40.5t50 -58.5t31.5 -64t16.5 -63.5t7 -50.5t1 -30.5v-127q0 -79 -26.5 -152.5t-76.5 -123.5q56 -53 85.5 -132 t29.5 -165v-176q0 -15 -1 -32t-7 -52.5t-17 -66t-33 -66.5t-52 -61.5t-78 -42.5t-107 -17t-107 17t-78 42.5t-52 61.5t-33 66.5t-17 66t-7 52.5t-1 32zM268 410q2 -126 18 -175t62 -49q19 0 32.5 6.5t22 21.5t14 31.5t8 45.5t3 53.5t0.5 65.5q0 52 -0.5 83t-3 65.5t-8 53 t-14 35t-22 23t-32.5 6.5t-32.5 -6.5t-22 -23t-14 -35t-8 -53t-3 -65.5t-0.5 -83zM283 1120q0 -128 12.5 -177.5t52.5 -49.5q41 0 53.5 50t12.5 177q0 112 -13 159.5t-53 47.5q-25 0 -38.5 -20t-19.5 -63.5t-7 -123.5z" />
<glyph unicode="9" horiz-adv-x="700" d="M57 340v94h222q0 -162 11 -210t56 -48q40 0 54 37t14 127v283q-60 -37 -111 -37q-64 0 -112 25.5t-73 61t-39.5 83.5t-18 81t-3.5 66v293q0 20 1.5 41t8.5 54.5t18.5 63t33.5 61.5t51.5 54.5t75 37t100.5 14.5t100.5 -14.5t75 -37t51.5 -54.5t33.5 -61.5t18.5 -63 t8.5 -54.5t1.5 -41v-856q0 -356 -289 -356t-289 356zM279 825q0 -19 18 -43t49 -24t48.5 20.5t19.5 40.5v443q0 20 -17 43.5t-51 23.5q-31 0 -49 -24t-18 -43v-437z" />
<glyph unicode=":" horiz-adv-x="362" d="M74 0v227h215v-227h-215zM74 893v227h215v-227h-215z" />
<glyph unicode=";" horiz-adv-x="362" d="M74 0v227h215v-227l-113 -266h-102l71 266h-71zM74 893v227h215v-227h-215z" />
<glyph unicode="&#x3c;" horiz-adv-x="1058" d="M74 649v160l911 475v-199l-698 -356l698 -356v-199z" />
<glyph unicode="=" horiz-adv-x="1058" d="M74 477v172h911v-172h-911zM74 864v172h911v-172h-911z" />
<glyph unicode="&#x3e;" horiz-adv-x="1058" d="M74 174v199l698 356l-698 356v199l911 -475v-160z" />
<glyph unicode="?" horiz-adv-x="645" d="M25 1260q13 32 34.5 68t59.5 82t95.5 75t123.5 28t116 -24t77.5 -55t45 -73.5t22.5 -73t5 -60.5q0 -39 -13 -80.5t-25.5 -65t-41.5 -73.5q-67 -110 -90 -171q-33 -87 -33 -175v-256h-190v256q0 101 24 194.5t48 141t65 116.5q44 71 53 113q6 27 -11 60.5t-56 33.5 q-48 1 -82.5 -47.5t-48.5 -97.5zM199 0h215v227h-215v-227z" />
<glyph unicode="@" horiz-adv-x="872" d="M66 303v889q0 33 9.5 72t36 86t66.5 84.5t108 62.5t154 25q72 0 132 -17.5t99.5 -46.5t68.5 -64t45 -73.5t23 -70t7 -58.5v-793h-164l-20 56q-1 -3 -4 -7.5t-13 -16t-22 -20.5t-32 -16.5t-42 -7.5q-77 0 -111 47t-34 125v485q0 76 34 123t111 47q36 0 64 -17t38 -33 l11 -17v45q0 20 -9 44t-28.5 51t-59.5 45t-94 18t-94 -18t-59.5 -45t-28 -51t-8.5 -44v-889q0 -21 8.5 -45t28 -49.5t59.5 -42t94 -16.5q117 0 168 63l152 -86q-106 -143 -320 -143q-86 0 -154 24.5t-108 60.5t-66.5 81.5t-36 83t-9.5 69.5zM535 573q0 -53 47 -53 q49 0 49 53v455q0 24 -13.5 38.5t-35.5 14.5q-47 0 -47 -53v-455z" />
<glyph unicode="A" horiz-adv-x="765" d="M20 0l228 1505h270l227 -1505h-215l-41 307h-213l-40 -307h-216zM307 541h152l-64 475l-6 39h-12l-6 -39z" />
<glyph unicode="B" horiz-adv-x="745" d="M82 0v1505h194q206 0 305 -91t99 -308q0 -106 -29.5 -174.5t-107.5 -136.5q6 -3 16.5 -9.5t37 -34.5t46.5 -65.5t36.5 -106.5t16.5 -153q0 -69 -10 -128.5t-34.5 -114t-63 -93t-98 -63t-136.5 -27.5h-272zM303 219h7q21 0 35 1t39.5 13t41.5 34.5t28.5 69.5t12.5 114 q0 48 -6.5 86.5t-15.5 62t-25 41t-27.5 25t-31 12t-27.5 4.5h-24h-7v-463zM303 885h22.5t27 3.5t33 10t29.5 21t27.5 35t17 54t7.5 76.5t-7.5 76.5t-17 54t-27.5 35.5t-29.5 21.5t-32.5 10t-27.5 3.5h-22.5v-401z" />
<glyph unicode="C" horiz-adv-x="708" d="M68 291v18v887q0 7 0.5 18.5t6 45.5t15.5 65t32 68.5t51.5 64.5t78.5 45.5t110 18.5t110 -18t78.5 -46.5t52 -63.5t32.5 -70t15.5 -63.5t5.5 -46.5l1 -18v-207h-206v207q-1 1 0.5 11.5t-3.5 27.5t-12 33t-25 27.5t-44 11.5q-22 0 -38 -11.5t-23.5 -27.5t-11.5 -32.5 t-4 -27.5l-1 -12v-887q0 -4 0.5 -11.5t4.5 -26.5t11.5 -33.5t23.5 -26.5t38 -12q26 0 44 11.5t25.5 27.5t11.5 32t4 28l-1 11v207h206v-207q0 -7 -0.5 -18.5t-6 -45.5t-15.5 -64.5t-32 -68t-52 -64.5t-79 -45.5t-110 -18.5t-110 18t-78.5 46.5t-51.5 63.5t-32 69.5t-15.5 63 t-6.5 46.5z" />
<glyph unicode="D" horiz-adv-x="761" d="M82 0v1505h174q63 0 112 -5t91 -18t73 -28.5t56 -45t42 -59t29.5 -78.5t19 -96t11 -119t5.5 -139t1 -165q0 -141 -3 -228t-12.5 -176.5t-29 -139t-50 -95.5t-79 -67t-112.5 -33.5t-154 -12.5h-174zM303 221q80 0 109 25q39 35 49 164q6 80 6 283v61v40q0 292 -14 374 q-15 83 -61 103q-27 13 -89 13v-1063z" />
<glyph unicode="E" horiz-adv-x="628" d="M82 0v1505h506v-227h-285v-395h205v-242h-205v-414h285v-227h-506z" />
<glyph unicode="F" horiz-adv-x="616" d="M82 0v1505h526v-227h-305v-395h205v-228h-205v-655h-221z" />
<glyph unicode="G" horiz-adv-x="737" d="M68 291v18v887q0 7 0.5 18.5t6 45.5t15.5 65t32 68.5t51.5 64.5t78.5 45.5t110 18.5t110 -18t78.5 -46.5t52 -63.5t32.5 -70t15.5 -63.5t5.5 -46.5l1 -18v-231h-221v231v12t-3.5 26.5t-10.5 34t-22.5 26.5t-37.5 12q-35 0 -53 -27.5t-19 -55.5l-1 -28v-905v-12t3.5 -26.5 t10 -34t22 -26.5t37.5 -12q35 0 53.5 28t19.5 56l1 27v272h-88v187h309v-750h-131l-26 72q-71 -88 -172 -88q-57 0 -102.5 18t-72 46.5t-45.5 63.5t-26.5 69.5t-11.5 62.5q-2 23 -2 38v9z" />
<glyph unicode="H" horiz-adv-x="778" d="M82 0v1505h221v-622h172v622h221v-1505h-221v655h-172v-655h-221z" />
<glyph unicode="I" horiz-adv-x="385" d="M82 0v1505h221v-1505h-221z" />
<glyph unicode="J" horiz-adv-x="423" d="M12 -14v217q5 -1 13 -2t28.5 2t36 12.5t28.5 34.5t13 63v1192h221v-1226q0 -64 -17 -116.5t-54 -95.5t-105 -65q-56 -17 -129 -17q-17 0 -35 1z" />
<glyph unicode="K" horiz-adv-x="768" d="M82 0v1505h221v-501v-25h8l11 25l184 501h215l-203 -495l230 -1010h-216l-153 655l-6 31h-6l-13 -31l-51 -123v-532h-221z" />
<glyph unicode="L" horiz-adv-x="604" d="M82 0v1505h221v-1300h293v-205h-514z" />
<glyph unicode="M" horiz-adv-x="991" d="M82 0v1505h270l131 -688l11 -80h4l10 80l131 688h270v-1505h-204v946v64h-13l-8 -64l-141 -946h-94l-142 946l-8 64h-12v-64v-946h-205z" />
<glyph unicode="N" horiz-adv-x="808" d="M82 0v1505h197l215 -784l18 -70h12v70v784h203v-1505h-197l-215 784l-18 70h-12v-70v-784h-203z" />
<glyph unicode="O" d="M68 291v18v887q0 7 0.5 18.5t6 45.5t15.5 65t32 68.5t51.5 64.5t78.5 45.5t110 18.5t110 -18t78.5 -46.5t52 -63.5t32.5 -70t15.5 -63.5t5.5 -46.5l1 -18v-887q0 -7 -0.5 -18.5t-6 -45.5t-15.5 -64.5t-32 -68t-52 -64.5t-79 -45.5t-110 -18.5t-110 18t-78.5 46.5 t-51.5 63.5t-32 69.5t-15.5 63t-6.5 46.5zM289 297.5q0 -7.5 3.5 -26.5t10 -33.5t22 -26.5t37.5 -12t37.5 11.5t22.5 27.5t10.5 32t3.5 28v11v887v12t-3.5 26.5t-10.5 34t-22.5 26.5t-37.5 12q-35 0 -53 -27.5t-19 -55.5l-1 -28v-887v-11.5z" />
<glyph unicode="P" horiz-adv-x="720" d="M82 0v1505h221q77 0 143 -22.5t123 -72t90 -140.5t33 -215t-33 -215.5t-90 -141.5t-123 -73t-143 -23v-602h-221zM303 827q102 0 134 45.5t32 174.5q0 132 -33 182.5t-133 50.5v-453z" />
<glyph unicode="Q" horiz-adv-x="729" d="M68 291v18v887q0 7 0.5 18.5t6 45.5t15.5 65t32 68.5t51.5 64.5t78.5 45.5t110 18.5t110 -18t78.5 -46.5t52 -63.5t32.5 -70t15.5 -63.5t5.5 -46.5l1 -18v-887q0 -94 -45 -182q30 -42 88 -53v-189q-158 0 -227 117q-56 -18 -111 -18q-61 0 -110 18t-78.5 46.5t-51.5 63.5 t-32 69.5t-15.5 63t-6.5 46.5zM289 297.5q0 -7.5 3.5 -26.5t10 -33.5t22 -26.5t37.5 -12t37.5 11.5t22.5 27.5t10.5 32t3.5 28v11v887v12t-3.5 26.5t-10.5 34t-22.5 26.5t-37.5 12q-35 0 -53 -27.5t-19 -55.5l-1 -28v-887v-11.5z" />
<glyph unicode="R" horiz-adv-x="739" d="M82 0v1505h221q194 0 285.5 -109t91.5 -325q0 -118 -31 -209.5t-92 -132.5l141 -729h-221l-115 635h-59v-635h-221zM303 840q20 0 34 2t35 8t36 21t29.5 38.5t22 62.5t7.5 91t-7.5 91t-22 62.5t-29.5 38.5t-36 21t-35 8t-34 2v-446z" />
<glyph unicode="S" horiz-adv-x="702" d="M37 422l217 20q0 -54 3 -94t13.5 -80t32.5 -61t55 -21q91 0 91 166q0 29 -8.5 59.5t-32 72.5t-37.5 64.5t-52 79t-49 72.5q-48 71 -77 118t-61.5 110.5t-48 123t-15.5 117.5q0 65 16 124.5t49 111.5t90.5 84t132.5 33h11q69 0 123 -24q58 -26 90.5 -65.5t52.5 -96 t26.5 -107t6.5 -107.5l-217 -20q0 217 -89 217q-75 -3 -75 -150q0 -19 4.5 -40t10 -38t18.5 -43t21 -41t27.5 -45t28 -42.5t32.5 -47t32 -45.5q108 -163 142 -230q65 -128 65 -235q0 -378 -308 -378q-83 0 -143 25t-93.5 64t-53 99.5t-25.5 117t-6 132.5z" />
<glyph unicode="T" horiz-adv-x="647" d="M4 1278v227h639v-227h-209v-1278h-221v1278h-209z" />
<glyph unicode="U" horiz-adv-x="749" d="M80 291v18v1196h221v-1196v-11.5t3.5 -26.5t10.5 -33.5t22.5 -26.5t37.5 -12t37.5 11.5t22.5 27.5t10.5 32t3.5 28v11v1196h221v-1196q0 -7 -0.5 -18.5t-6 -45.5t-15.5 -64.5t-32 -68t-52 -64.5t-79 -45.5t-110 -18.5t-110 18t-78.5 46.5t-52 63.5t-32.5 69.5t-15.5 63 t-6.5 46.5z" />
<glyph unicode="V" horiz-adv-x="716" d="M18 1505h215l111 -827l8 -64h13l8 64l110 827h215l-229 -1505h-221z" />
<glyph unicode="W" horiz-adv-x="1036" d="M25 1505h204l88 -782l5 -49h16l6 49l94 782h160l94 -782l6 -49h17l4 49l88 782h205l-203 -1505h-172l-102 713l-13 88h-8l-12 -88l-103 -713h-172z" />
<glyph unicode="X" horiz-adv-x="737" d="M16 0l244 791l-240 714h218l120 -381l7 -18h8l6 18l121 381h217l-240 -714l244 -791h-217l-127 449l-4 18h-8l-5 -18l-127 -449h-217z" />
<glyph unicode="Y" horiz-adv-x="700" d="M14 1505h217l111 -481l6 -14h4l6 14l111 481h217l-225 -864v-641h-221v641z" />
<glyph unicode="Z" horiz-adv-x="626" d="M20 0v238l347 1048h-297v219h536v-219l-352 -1067h352v-219h-586z" />
<glyph unicode="[" horiz-adv-x="538" d="M82 -16v1521h399v-196h-202v-1325h202v-197h-399v197z" />
<glyph unicode="\" horiz-adv-x="792" d="M8 1692h162l614 -1872h-168z" />
<glyph unicode="]" horiz-adv-x="538" d="M57 -16h203v1325h-203v196h400v-1521v-197h-400v197z" />
<glyph unicode="^" horiz-adv-x="1101" d="M53 809l381 696h234l381 -696h-199l-299 543l-299 -543h-199z" />
<glyph unicode="_" horiz-adv-x="1210" d="M74 -154h1063v-172h-1063v172z" />
<glyph unicode="`" horiz-adv-x="1024" d="M293 1489h215l106 -184h-159z" />
<glyph unicode="a" horiz-adv-x="681" d="M49 260q0 77 18 141.5t47 106.5t64.5 75t72 54t67 37t52 30t25.5 27v37v86q0 22 -1 34.5t-6 31t-17.5 27.5t-32.5 9t-33 -11t-17.5 -29t-7 -40t-1.5 -44t0 -41h-207v47q0 124 80 211.5t198 87.5q103 0 177.5 -73.5t74.5 -180.5v-351v-337q0 -109 14 -195h-202 q-19 21 -19 90h-14q-19 -37 -64.5 -71.5t-101.5 -34.5q-19 0 -38.5 5.5t-43.5 24t-42 47t-30 80.5t-12 119zM252 291q0 -20 3 -40.5t17 -42.5t37 -22q35 0 60.5 20t25.5 48v287q-72 -31 -107.5 -98.5t-35.5 -151.5z" />
<glyph unicode="b" horiz-adv-x="686" d="M82 0v1505h207v-458q10 10 26.5 25t60 40t77.5 25q77 0 118 -69t41 -150v-715q0 -81 -41 -150t-118 -69q-34 0 -75 22.5t-65 45.5l-24 22v-74h-207zM289 246q0 -28 19 -48t42 -20t39.5 19.5t16.5 48.5v628q0 29 -16.5 48.5t-39.5 19.5t-42 -21.5t-19 -46.5v-628z" />
<glyph unicode="c" horiz-adv-x="645" d="M66 315v490q0 332 264 332q137 0 201.5 -71t64.5 -251v-88h-207v135q0 52 -12 71t-47 19q-26 0 -39.5 -15.5t-16 -32t-2.5 -42.5v-604q0 -26 2.5 -42.5t16 -32t39.5 -15.5q35 0 47 19t12 71v156h207v-109q0 -123 -31.5 -194.5t-87.5 -99t-147 -27.5q-264 0 -264 331z" />
<glyph unicode="d" horiz-adv-x="686" d="M74 203v715q0 81 41 150t118 69q34 0 75 -22.5t65 -44.5l24 -23v458h207v-1505h-207v74q-10 -10 -26.5 -25t-60 -40t-77.5 -25q-77 0 -118 69t-41 150zM281 246q0 -29 16 -48.5t39 -19.5t42 20t19 48v628q0 25 -19 46.5t-42 21.5t-39 -19.5t-16 -48.5v-628z" />
<glyph unicode="e" horiz-adv-x="659" d="M66 262v17v563q0 6 0.5 16.5t6 41.5t15 58.5t29.5 61.5t47 58.5t71.5 41.5t98.5 17q55 0 99 -16t71 -41.5t47 -56.5t29 -61.5t14 -56t6 -41.5v-16v-326h-342v-243q0 -5 0.5 -12.5t4.5 -27t11 -34.5t23 -27t37 -12q22 0 37.5 11.5t22.5 28t10.5 33.5t3.5 29v11v122h192 v-129q0 -6 -0.5 -16.5t-6 -40.5t-14.5 -57t-29 -60t-47.5 -57t-71.5 -40.5t-99 -16.5q-54 0 -98 16.5t-71 42.5t-47 57t-29 62.5t-14.5 57.5t-6.5 42zM258 684h150v158v12.5t-3.5 27t-10.5 34.5t-22.5 27.5t-37.5 12.5q-34 0 -53 -28.5t-21 -57.5l-2 -28v-158z" />
<glyph unicode="f" horiz-adv-x="475" d="M20 934v186h105v17v14v43.5t2.5 48.5t6 54t12 52.5t20 51.5t29.5 43.5t41 37t55 22.5t71 9q29 0 53.5 -3.5t34.5 -7.5l9 -3v-178q-27 8 -62 8q-65 0 -65 -159v-11v-10v-16v-13h104v-186h-104v-934h-207v934h-105z" />
<glyph unicode="g" horiz-adv-x="700" d="M12 -184q0 93 162 170q-56 15 -90.5 51.5t-34.5 97.5q0 44 40 92.5t89 75.5q-33 22 -57 55t-35.5 65t-18 60.5t-7.5 46.5l-1 17v305q0 6 1 16t6.5 40t14.5 57t29 59.5t46.5 56.5t69.5 40t96 16q133 0 206 -103q103 103 170 103v-185q-70 0 -120 -24q4 -17 6.5 -34.5 t3.5 -26.5v-9v-317q0 -6 -1 -16t-6.5 -38.5t-15 -55t-30 -58.5t-47 -54.5t-70 -38.5t-96.5 -16q-27 0 -39 2q-29 -25 -29 -51q0 -16 13 -28t34 -19t48.5 -12.5t53.5 -9.5q6 -1 9 -1q44 -6 79.5 -15t76 -28.5t67.5 -46t45 -70.5t18 -100q0 -79 -30.5 -136.5t-83.5 -89 t-112.5 -46t-127.5 -14.5q-163 5 -247.5 52.5t-84.5 164.5zM213 -150q0 -34 34 -55.5t101 -21.5q38 0 72.5 7.5t60 25t25.5 42.5q0 32 -20.5 50t-90.5 30l-106 21q-76 -44 -76 -99zM262 526v-5q0 -8 2 -19q3 -16 8 -30.5t18.5 -25t31.5 -10.5q20 0 33.5 10.5t19 25t8.5 29.5 t3 25l-1 11v307q-1 1 0 10.5t-2 25t-8.5 30.5t-19 25.5t-33.5 10.5q-29 0 -44 -25.5t-16 -50.5v-26v-307q1 -1 0 -11z" />
<glyph unicode="h" horiz-adv-x="690" d="M82 0v1505h207v-479q2 1 32 31.5t67 55t69 24.5q52 0 89 -36.5t51.5 -84.5t14.5 -98v-918h-206v887q0 49 -50 49q-18 0 -35 -13t-25 -27l-7 -13v-883h-207z" />
<glyph unicode="i" horiz-adv-x="370" d="M82 0v1120h207v-1120h-207zM82 1298v207h207v-207h-207z" />
<glyph unicode="j" horiz-adv-x="364" d="M-45 -182q28 -8 57 -8q23 0 37.5 14.5t19.5 43t6 46t1 48.5v11v1147h207v-1149q0 -36 -0.5 -57.5t-5 -63.5t-13 -69t-26 -61.5t-42 -55t-63.5 -35t-88 -14.5q-29 0 -51.5 3t-30.5 6l-8 3v191zM76 1298v207h207v-207h-207z" />
<glyph unicode="k" horiz-adv-x="641" d="M82 0v1505h207v-678v-36h10l12 36l101 293h186l-149 -364l188 -756h-199l-102 453l-4 16h-10l-7 -16l-26 -66v-387h-207z" />
<glyph unicode="l" horiz-adv-x="370" d="M82 0v1505h207v-1505h-207z" />
<glyph unicode="m" horiz-adv-x="1021" d="M82 0v1120h207v-94q1 1 32.5 31.5t69.5 55t70 24.5q52 0 87 -35t52 -90q4 3 43 40.5t76 61t69 23.5q52 0 89 -36.5t52 -84.5t15 -98v-918h-194v887q0 49 -56 49q-18 0 -37.5 -13t-30.5 -27l-10 -13v-883h-194v887q0 49 -55 49q-18 0 -37.5 -13t-29.5 -27l-11 -13v-883 h-207z" />
<glyph unicode="n" horiz-adv-x="690" d="M82 0v1120h207v-94q2 1 32 31.5t67 55t69 24.5q52 0 89 -36.5t51.5 -84.5t14.5 -98v-918h-206v887q0 49 -50 49q-18 0 -35 -13t-25 -27l-7 -13v-883h-207z" />
<glyph unicode="o" horiz-adv-x="657" d="M63 279v563q0 6 0.5 16.5t5.5 41.5t14 58.5t29 61.5t47 58.5t71 41.5t98 17q55 0 99 -16t71 -41.5t47 -56.5t29 -61.5t14 -56t6 -41.5v-16v-576q0 -6 -0.5 -16.5t-5.5 -40.5t-14 -57t-29 -60t-47 -57t-71 -40.5t-99 -16.5q-54 0 -98 16.5t-71 42.5t-47 57t-29 62.5 t-14 57.5t-5 42zM258 262q0 -10 3 -23q4 -17 9.5 -33t21 -28t36.5 -12q35 0 52.5 28t17.5 56l1 29v563q-1 1 0 12v5q-1 10 -3 23q-4 17 -9.5 33.5t-21 28.5t-37.5 12q-34 0 -51.5 -28.5t-18.5 -57.5v-28v-563v-17z" />
<glyph unicode="p" horiz-adv-x="686" d="M82 -385v1505h207v-73q10 10 26.5 25t60 40t77.5 25q77 0 118 -69t41 -150v-715q0 -81 -41 -150t-118 -69q-34 0 -75 22.5t-65 45.5l-24 22v-459h-207zM289 246q0 -25 19 -46.5t42 -21.5t39.5 19.5t16.5 48.5v628q0 29 -16.5 48.5t-39.5 19.5t-42 -20t-19 -48v-628z" />
<glyph unicode="q" horiz-adv-x="686" d="M74 203v715q0 81 41 150t118 69q34 0 75 -22.5t65 -44.5l24 -23v73h207v-1505h-207v459q-10 -10 -26.5 -25t-60 -40t-77.5 -25q-77 0 -118 69t-41 150zM281 246q0 -29 16 -48.5t39 -19.5t42 21.5t19 46.5v628q0 28 -19 48t-42 20t-39 -19.5t-16 -48.5v-628z" />
<glyph unicode="r" horiz-adv-x="503" d="M82 0v1120h207v-125q3 15 14.5 35t33.5 46t64 43.5t95 17.5v-230q-11 3 -28.5 7t-61 -2t-72.5 -31q-45 -40 -45 -103v-778h-207z" />
<glyph unicode="s" horiz-adv-x="630" d="M37 326h192q0 -27 3.5 -52t12.5 -54t30 -46.5t51 -17.5q71 0 71 135q0 46 -34 92.5t-95 105.5q-36 35 -49 47.5t-43.5 45.5t-43 54.5t-30 55t-24 68.5t-6.5 74q0 54 12 103.5t39 95.5t78.5 74.5t122.5 29.5h7q65 -1 113 -19q51 -20 78 -49t42.5 -73.5t19.5 -80t4 -81.5 h-193q0 27 -1.5 44t-7 40t-20.5 35t-38 12q-64 -2 -64 -131q0 -26 10.5 -51.5t35 -55t40 -45.5t49.5 -49q87 -83 139 -164t52 -178q0 -56 -14 -107.5t-43.5 -97.5t-83 -74t-123.5 -28q-72 0 -126.5 24.5t-84.5 60.5t-48.5 85t-24 89.5t-5.5 82.5z" />
<glyph unicode="t" horiz-adv-x="501" d="M20 934v186h105v277h207v-277h141v-186h-141v-557q0 -39 1 -60.5t6.5 -55.5t20 -51t37.5 -17q16 0 35 2t30 4l11 2v-203q-45 -14 -111 -14q-39 0 -71 9t-55 22.5t-41 37.5t-29.5 44.5t-20 52.5t-12 53.5t-6 56.5t-2.5 52v48v574h-105z" />
<glyph unicode="u" horiz-adv-x="690" d="M78 203v917h207v-887q0 -29 13 -39t36 -10q18 0 35 13.5t25 26.5l7 14v882h207v-1120h-207v94q-1 -1 -31.5 -31t-67.5 -54.5t-69 -24.5q-52 0 -89 36.5t-51.5 84.5t-14.5 98z" />
<glyph unicode="v" horiz-adv-x="602" d="M16 1120h201l68 -649l8 -72h16l8 72l68 649h201l-183 -1120h-204z" />
<glyph unicode="w" horiz-adv-x="905" d="M20 1120h189l65 -585l9 -64h12l10 64l86 585h123l86 -585l10 -64h13l8 64l65 585h189l-166 -1120h-172l-80 535l-10 63h-8l-11 -63l-80 -535h-172z" />
<glyph unicode="x" horiz-adv-x="618" d="M16 0l193 578l-176 542h194l74 -262l6 -31h4l6 31l74 262h195l-176 -542l192 -578h-201l-84 283l-6 30h-4l-6 -30l-84 -283h-201z" />
<glyph unicode="y" horiz-adv-x="634" d="M25 1120h202l82 -688l4 -57h9l4 57l82 688h202l-198 -1204q-10 -81 -45.5 -151.5t-99.5 -118t-142 -47.5l-92 4v184q16 -4 49 -4q61 6 97 61.5t36 122.5z" />
<glyph unicode="z" horiz-adv-x="532" d="M12 0v168l285 764h-240v188h459v-168l-285 -764h285v-188h-504z" />
<glyph unicode="{" horiz-adv-x="688" d="M61 453v163q39 0 67 17t41 42.5t18.5 46t5.5 34.5v397q0 115 23 187.5t78 113.5t134 55.5t203 12.5v-172q-135 2 -188.5 -38.5t-53.5 -158.5v-397q0 -78 -32 -130t-95 -91q63 -40 95 -93t32 -129v-397q0 -118 53.5 -158.5t188.5 -38.5v-172q-124 -2 -203 12.5t-134 55.5 t-78 113.5t-23 187.5v397q0 14 -5.5 33t-18.5 44t-41 43t-67 20z" />
<glyph unicode="|" horiz-adv-x="356" d="M82 -512v2204h192v-2204h-192z" />
<glyph unicode="}" horiz-adv-x="688" d="M57 -281q135 -2 188.5 38.5t53.5 158.5v397q0 76 32 129t95 93q-63 39 -95 91t-32 130v397q0 118 -53.5 158.5t-188.5 38.5v172q124 2 203 -12.5t134.5 -55.5t78.5 -113.5t23 -187.5v-397q0 -15 5.5 -35t18 -45.5t40.5 -42.5t67 -17v-163q-39 -2 -67 -20t-40.5 -43 t-18 -44t-5.5 -33v-397q0 -115 -23 -187.5t-78.5 -113.5t-134.5 -55.5t-203 -12.5v172z" />
<glyph unicode="~" horiz-adv-x="1280" d="M113 1352q2 6 6 17.5t19 43t32.5 60.5t46.5 64.5t61.5 61t77 43t93.5 17.5q53 0 103 -15t82 -32.5t76 -45.5q3 -3 5 -4t5 -3t5 -3q106 -71 174 -71q36 0 69 18.5t54.5 45.5t37.5 54t23 45l7 19l135 -57q-2 -6 -6.5 -17.5t-19.5 -43.5t-32 -61.5t-46 -65t-60 -61.5 t-73.5 -43.5t-88.5 -17.5q-54 0 -106.5 16.5t-84 34t-81.5 50.5q-37 24 -59 37t-56 25t-63 12q-40 0 -75.5 -18.5t-57.5 -45.5t-38 -53.5t-23 -45.5l-7 -18z" />
<glyph unicode="&#xa1;" horiz-adv-x="387" d="M74 -385l55 1100h129l55 -1100h-239zM86 893v227h215v-227h-215z" />
<glyph unicode="&#xa2;" horiz-adv-x="636" d="M66 508v489q0 298 208 328v242h123v-244q98 -15 144.5 -87.5t46.5 -227.5v-88h-189v135q0 49 -18 69.5t-55 20.5q-38 0 -55 -27t-17 -63v-604q0 -37 17 -64t55 -27q37 0 55 21t18 70v155h189v-108q0 -156 -46.5 -229.5t-144.5 -88.5v-303h-123v301q-208 30 -208 330z" />
<glyph unicode="&#xa3;" horiz-adv-x="817" d="M4 63q3 8 8.5 20.5t25 46.5t42 61t59.5 52.5t76 32.5q37 113 37 199q0 65 -31 174h-188v137h147l-6 21q-78 254 -78 342q0 69 15.5 131t48 117.5t92 89.5t139.5 35q78 1 137.5 -21.5t95.5 -60t59 -91.5t31.5 -109t8.5 -120h-213q0 86 -26 142t-89 55q-32 -1 -53 -27.5 t-29 -62t-8 -78.5q0 -51 11.5 -114t23.5 -107t35 -117l6 -25h211v-137h-174q24 -102 24 -174q0 -105 -57 -219q15 -8 43.5 -25t48.5 -25t41 -9q32 2 55 48t27 142l188 -22q-12 -182 -81.5 -281.5t-169.5 -99.5q-50 0 -143 51t-130 51q-33 0 -61.5 -25.5t-40.5 -50.5l-12 -26 z" />
<glyph unicode="&#xa5;" horiz-adv-x="720" d="M25 1505h217l110 -481l6 -14h4l7 14l110 481h217l-196 -753h147v-138h-176v-137h176v-137h-176v-340h-221v340h-176v137h176v137h-176v138h147z" />
<glyph unicode="&#xa8;" horiz-adv-x="1024" d="M272 1305v200h191v-200h-191zM561 1305v200h191v-200h-191z" />
<glyph unicode="&#xa9;" horiz-adv-x="1644" d="M53 752q0 156 61 298.5t164 246t245.5 164.5t297.5 61q209 0 386 -103.5t280.5 -280.5t103.5 -386q0 -155 -61 -297.5t-164.5 -245.5t-246 -164t-298.5 -61q-155 0 -297.5 61t-245.5 164t-164 245.5t-61 297.5zM172 752q0 -130 52 -250.5t139.5 -208t207.5 -139.5 t250 -52q131 0 251.5 52t208.5 139.5t140 208t52 250.5q0 175 -88 325t-238.5 238t-325.5 88q-174 0 -323.5 -88t-237.5 -238t-88 -325zM627 487v531q0 8 1 21t11 47t28 60t57.5 47t94.5 21q53 0 91.5 -20t56.5 -49t28.5 -58t11.5 -49l1 -20v-125h-138v125q-1 1 0 7 t-1.5 15.5t-6.5 18.5t-15 15.5t-26 6.5q-22 0 -34 -15.5t-13 -31.5l-2 -16v-531q0 -3 0.5 -7t3 -15t7 -19t14.5 -15t24 -7q24 0 36.5 16t12.5 32v15v125h138v-125q0 -8 -1 -21t-11.5 -47t-28.5 -60t-56.5 -47t-91.5 -21q-55 0 -94.5 20t-57.5 49t-28 58t-11 49z" />
<glyph unicode="&#xad;" horiz-adv-x="444" d="M74 455v194h297v-194h-297z" />
<glyph unicode="&#xae;" horiz-adv-x="1644" d="M53 752q0 156 61 298.5t164 246t245.5 164.5t297.5 61q209 0 386 -103.5t280.5 -280.5t103.5 -386q0 -155 -61 -297.5t-164.5 -245.5t-246 -164t-298.5 -61q-155 0 -297.5 61t-245.5 164t-164 245.5t-61 297.5zM172 752q0 -130 52 -250.5t139.5 -208t207.5 -139.5 t250 -52q131 0 251.5 52t208.5 139.5t140 208t52 250.5q0 175 -88 325t-238.5 238t-325.5 88q-174 0 -323.5 -88t-237.5 -238t-88 -325zM625 313v879h196q232 0 232 -258q0 -77 -16 -126t-72 -95l106 -400h-151l-95 365h-55v-365h-145zM770 805h45q32 0 53 11t30 31.5t12 39 t3 45.5q0 28 -3 47t-12 40.5t-30 32.5t-53 11h-45v-258z" />
<glyph unicode="&#xaf;" horiz-adv-x="1024" d="M313 1315v162h398v-162h-398z" />
<glyph unicode="&#xb4;" horiz-adv-x="1024" d="M410 1305l106 184h215l-162 -184h-159z" />
<glyph unicode="&#xb7;" horiz-adv-x="215" d="M0 649v228h215v-228h-215z" />
<glyph unicode="&#xb8;" horiz-adv-x="1024" d="M426 -111h172v-141l-45 -133h-104l40 133h-63v141z" />
<glyph unicode="&#xbf;" horiz-adv-x="645" d="M41 -106q0 39 13 80.5t25.5 65t41.5 73.5q67 110 90 171q33 87 33 175v256h190v-256q0 -78 -11.5 -146t-35 -127t-42 -94.5t-48.5 -85.5q-44 -71 -53 -112q-6 -27 11 -61t56 -34q48 -1 82.5 48t48.5 98l179 -84q-13 -32 -34.5 -68t-60 -82.5t-96 -75.5t-123.5 -28 t-116 24t-77.5 55t-45 74t-22.5 73.5t-5 60.5zM231 893v227h215v-227h-215z" />
<glyph unicode="&#xc0;" horiz-adv-x="765" d="M20 0l228 1505h270l227 -1505h-215l-41 307h-213l-40 -307h-216zM141 1823h215l107 -185h-160zM307 541h152l-64 475l-6 39h-12l-6 -39z" />
<glyph unicode="&#xc1;" horiz-adv-x="765" d="M20 0l228 1505h270l227 -1505h-215l-41 307h-213l-40 -307h-216zM293 1638l106 185h215l-161 -185h-160zM307 541h152l-64 475l-6 39h-12l-6 -39z" />
<glyph unicode="&#xc2;" horiz-adv-x="765" d="M20 0l228 1505h270l227 -1505h-215l-41 307h-213l-40 -307h-216zM133 1638l141 185h220l141 -185h-189l-63 72l-61 -72h-189zM307 541h152l-64 475l-6 39h-12l-6 -39z" />
<glyph unicode="&#xc3;" horiz-adv-x="765" d="M20 0l228 1505h270l227 -1505h-215l-41 307h-213l-40 -307h-216zM184 1632v152q50 39 109 39q33 0 91.5 -18.5t88.5 -20.5q25 0 52.5 8t42.5 16l14 9v-152q-52 -39 -109 -39q-31 0 -89 19t-91 20q-25 0 -52.5 -8.5t-42.5 -16.5zM307 541h152l-64 475l-6 39h-12l-6 -39z " />
<glyph unicode="&#xc4;" horiz-adv-x="765" d="M20 0l228 1505h270l227 -1505h-215l-41 307h-213l-40 -307h-216zM143 1638v201h191v-201h-191zM307 541h152l-64 475l-6 39h-12l-6 -39zM432 1638v201h191v-201h-191z" />
<glyph unicode="&#xc5;" horiz-adv-x="765" d="M20 0l228 1505h270l227 -1505h-215l-41 307h-213l-40 -307h-216zM231 1761q0 62 45 103t109 41t108 -41t44 -103t-44 -102.5t-108 -40.5t-109 40.5t-45 102.5zM307 541h152l-64 475l-6 39h-12l-6 -39zM309 1761q0 -29 23 -50t53 -21t53 21t23 50t-23 50.5t-53 21.5 t-53 -21.5t-23 -50.5z" />
<glyph unicode="&#xc6;" horiz-adv-x="1099" d="M16 0l420 1505h623v-227h-285v-395h205v-242h-205v-414h285v-227h-506v307h-227l-90 -307h-220zM393 541h160v514h-10z" />
<glyph unicode="&#xc7;" horiz-adv-x="708" d="M68 291v18v887q0 7 0.5 18.5t6 45.5t15.5 65t32 68.5t51.5 64.5t78.5 45.5t110 18.5t110 -18t78.5 -46.5t52 -63.5t32.5 -70t15.5 -63.5t5.5 -46.5l1 -18v-207h-206v207q-1 1 0.5 11.5t-3.5 27.5t-12 33t-25 27.5t-44 11.5q-22 0 -38 -11.5t-23.5 -27.5t-11.5 -32.5 t-4 -27.5l-1 -12v-887q0 -4 0.5 -11.5t4.5 -26.5t11.5 -33.5t23.5 -26.5t38 -12q26 0 44 11.5t25.5 27.5t11.5 32t4 28l-1 11v207h206v-207q0 -7 -0.5 -18.5t-6 -45.5t-15.5 -64.5t-32 -68t-52 -64.5t-79 -45.5t-110 -18.5t-110 18t-78.5 46.5t-51.5 63.5t-32 69.5t-15.5 63 t-6.5 46.5zM268 -111v-141h64l-41 -133h104l45 133v141h-172z" />
<glyph unicode="&#xc8;" horiz-adv-x="628" d="M82 0v1505h506v-227h-285v-395h205v-242h-205v-414h285v-227h-506zM111 1823h215l106 -185h-160z" />
<glyph unicode="&#xc9;" horiz-adv-x="628" d="M82 0v1505h506v-227h-285v-395h205v-242h-205v-414h285v-227h-506zM236 1638l106 185h215l-162 -185h-159z" />
<glyph unicode="&#xca;" horiz-adv-x="628" d="M82 0v1505h506v-227h-285v-395h205v-242h-205v-414h285v-227h-506zM84 1638l141 185h219l142 -185h-189l-63 72l-62 -72h-188z" />
<glyph unicode="&#xcb;" horiz-adv-x="628" d="M82 0v1505h506v-227h-285v-395h205v-242h-205v-414h285v-227h-506zM94 1638v201h191v-201h-191zM383 1638v201h190v-201h-190z" />
<glyph unicode="&#xcc;" horiz-adv-x="401" d="M-6 1823h215l106 -185h-159zM98 0v1505h221v-1505h-221z" />
<glyph unicode="&#xcd;" horiz-adv-x="401" d="M82 0v1505h221v-1505h-221zM86 1638l107 185h215l-162 -185h-160z" />
<glyph unicode="&#xce;" horiz-adv-x="370" d="M-66 1638l142 185h219l141 -185h-188l-64 72l-61 -72h-189zM74 0v1505h221v-1505h-221z" />
<glyph unicode="&#xcf;" horiz-adv-x="372" d="M-53 1638v201h190v-201h-190zM76 0v1505h221v-1505h-221zM236 1638v201h190v-201h-190z" />
<glyph unicode="&#xd0;" horiz-adv-x="761" d="M20 655v228h62v622h174q63 0 112 -5t91 -18t73 -28.5t56 -45t42 -59t29.5 -78.5t19 -96t11 -119t5.5 -139t1 -165q0 -141 -3 -228t-12.5 -176.5t-29 -139t-50 -95.5t-79 -67t-112.5 -33.5t-154 -12.5h-174v655h-62zM303 221q80 0 109 25q39 35 49 164q7 91 6 344 q1 327 -14 414q-15 83 -61 103q-27 13 -89 13v-401h84v-228h-84v-434z" />
<glyph unicode="&#xd1;" horiz-adv-x="808" d="M82 0v1505h197l215 -784l18 -70h12v70v784h203v-1505h-197l-215 784l-18 70h-12v-70v-784h-203zM207 1632v152q49 39 108 39q33 0 92 -18.5t89 -20.5q25 0 52 8t42 16l14 9v-152q-51 -39 -108 -39q-31 0 -89.5 19t-91.5 20q-25 0 -52 -8.5t-41 -16.5z" />
<glyph unicode="&#xd2;" d="M68 291v18v887q0 7 0.5 18.5t6 45.5t15.5 65t32 68.5t51.5 64.5t78.5 45.5t110 18.5t110 -18t78.5 -46.5t52 -63.5t32.5 -70t15.5 -63.5t5.5 -46.5l1 -18v-887q0 -7 -0.5 -18.5t-6 -45.5t-15.5 -64.5t-32 -68t-52 -64.5t-79 -45.5t-110 -18.5t-110 18t-78.5 46.5 t-51.5 63.5t-32 69.5t-15.5 63t-6.5 46.5zM121 1823h215l106 -185h-159zM289 297.5q0 -7.5 3.5 -26.5t10 -33.5t22 -26.5t37.5 -12t37.5 11.5t22.5 27.5t10.5 32t3.5 28v11v887v12t-3.5 26.5t-10.5 34t-22.5 26.5t-37.5 12q-35 0 -53 -27.5t-19 -55.5l-1 -28v-887v-11.5z " />
<glyph unicode="&#xd3;" d="M68 291v18v887q0 7 0.5 18.5t6 45.5t15.5 65t32 68.5t51.5 64.5t78.5 45.5t110 18.5t110 -18t78.5 -46.5t52 -63.5t32.5 -70t15.5 -63.5t5.5 -46.5l1 -18v-887q0 -7 -0.5 -18.5t-6 -45.5t-15.5 -64.5t-32 -68t-52 -64.5t-79 -45.5t-110 -18.5t-110 18t-78.5 46.5 t-51.5 63.5t-32 69.5t-15.5 63t-6.5 46.5zM285 1638l106 185h215l-162 -185h-159zM289 297.5q0 -7.5 3.5 -26.5t10 -33.5t22 -26.5t37.5 -12t37.5 11.5t22.5 27.5t10.5 32t3.5 28v11v887v12t-3.5 26.5t-10.5 34t-22.5 26.5t-37.5 12q-35 0 -53 -27.5t-19 -55.5l-1 -28v-887 v-11.5z" />
<glyph unicode="&#xd4;" d="M68 291v18v887q0 7 0.5 18.5t6 45.5t15.5 65t32 68.5t51.5 64.5t78.5 45.5t110 18.5t110 -18t78.5 -46.5t52 -63.5t32.5 -70t15.5 -63.5t5.5 -46.5l1 -18v-887q0 -7 -0.5 -18.5t-6 -45.5t-15.5 -64.5t-32 -68t-52 -64.5t-79 -45.5t-110 -18.5t-110 18t-78.5 46.5 t-51.5 63.5t-32 69.5t-15.5 63t-6.5 46.5zM113 1638l141 185h219l141 -185h-188l-64 72l-61 -72h-188zM289 297.5q0 -7.5 3.5 -26.5t10 -33.5t22 -26.5t37.5 -12t37.5 11.5t22.5 27.5t10.5 32t3.5 28v11v887v12t-3.5 26.5t-10.5 34t-22.5 26.5t-37.5 12q-35 0 -53 -27.5 t-19 -55.5l-1 -28v-887v-11.5z" />
<glyph unicode="&#xd5;" d="M68 291v18v887q0 7 0.5 18.5t6 45.5t15.5 65t32 68.5t51.5 64.5t78.5 45.5t110 18.5t110 -18t78.5 -46.5t52 -63.5t32.5 -70t15.5 -63.5t5.5 -46.5l1 -18v-887q0 -7 -0.5 -18.5t-6 -45.5t-15.5 -64.5t-32 -68t-52 -64.5t-79 -45.5t-110 -18.5t-110 18t-78.5 46.5 t-51.5 63.5t-32 69.5t-15.5 63t-6.5 46.5zM164 1632v152q49 39 108 39q33 0 92 -18.5t89 -20.5q25 0 52 8t41 16l15 9v-152q-51 -39 -108 -39q-31 0 -89.5 19t-91.5 20q-25 0 -52 -8.5t-42 -16.5zM289 297.5q0 -7.5 3.5 -26.5t10 -33.5t22 -26.5t37.5 -12t37.5 11.5 t22.5 27.5t10.5 32t3.5 28v11v887v12t-3.5 26.5t-10.5 34t-22.5 26.5t-37.5 12q-35 0 -53 -27.5t-19 -55.5l-1 -28v-887v-11.5z" />
<glyph unicode="&#xd6;" d="M68 291v18v887q0 7 0.5 18.5t6 45.5t15.5 65t32 68.5t51.5 64.5t78.5 45.5t110 18.5t110 -18t78.5 -46.5t52 -63.5t32.5 -70t15.5 -63.5t5.5 -46.5l1 -18v-887q0 -7 -0.5 -18.5t-6 -45.5t-15.5 -64.5t-32 -68t-52 -64.5t-79 -45.5t-110 -18.5t-110 18t-78.5 46.5 t-51.5 63.5t-32 69.5t-15.5 63t-6.5 46.5zM123 1638v201h190v-201h-190zM289 297.5q0 -7.5 3.5 -26.5t10 -33.5t22 -26.5t37.5 -12t37.5 11.5t22.5 27.5t10.5 32t3.5 28v11v887v12t-3.5 26.5t-10.5 34t-22.5 26.5t-37.5 12q-35 0 -53 -27.5t-19 -55.5l-1 -28v-887v-11.5z M412 1638v201h190v-201h-190z" />
<glyph unicode="&#xd8;" d="M59 -20l47 157q-18 37 -27.5 80t-10.5 67v25v887q0 7 0.5 18.5t6 45.5t15.5 65t32 68.5t51.5 64.5t78.5 45.5t110 18.5q93 0 158 -43l15 47h122l-45 -150q20 -38 31 -83t13 -71l1 -26v-887q0 -7 -0.5 -18.5t-6 -45.5t-15.5 -64.5t-32 -68t-52 -64.5t-79 -45.5t-110 -18.5 q-97 0 -159 43l-15 -47h-129zM289 297.5q0 -7.5 3.5 -26.5t10 -33.5t22 -26.5t37.5 -12t37.5 11.5t22.5 27.5t10.5 32t3.5 28v11v488l-147 -488v-11.5zM289 727l147 479q-9 101 -74 101q-35 0 -53 -27.5t-19 -55.5l-1 -28v-469z" />
<glyph unicode="&#xd9;" horiz-adv-x="749" d="M80 309q0 -7 0.5 -18.5t6 -45.5t15.5 -64.5t32 -68t52 -64.5t79 -45.5t110 -18.5t110 18t78.5 46.5t52 63.5t32.5 69.5t15.5 63t6.5 46.5v18v1196h-221v-1196v-11.5t-3.5 -26.5t-10.5 -33.5t-22.5 -26.5t-37.5 -12t-37.5 11.5t-22.5 27.5t-10.5 32t-3.5 28v11v1196h-221 v-1196zM145 1823h215l107 -185h-160z" />
<glyph unicode="&#xda;" horiz-adv-x="749" d="M80 309q0 -7 0.5 -18.5t6 -45.5t15.5 -64.5t32 -68t52 -64.5t79 -45.5t110 -18.5t110 18t78.5 46.5t52 63.5t32.5 69.5t15.5 63t6.5 46.5v18v1196h-221v-1196v-11.5t-3.5 -26.5t-10.5 -33.5t-22.5 -26.5t-37.5 -12t-37.5 11.5t-22.5 27.5t-10.5 32t-3.5 28v11v1196h-221 v-1196zM307 1638l107 185h215l-162 -185h-160z" />
<glyph unicode="&#xdb;" horiz-adv-x="749" d="M80 309q0 -7 0.5 -18.5t6 -45.5t15.5 -64.5t32 -68t52 -64.5t79 -45.5t110 -18.5t110 18t78.5 46.5t52 63.5t32.5 69.5t15.5 63t6.5 46.5v18v1196h-221v-1196v-11.5t-3.5 -26.5t-10.5 -33.5t-22.5 -26.5t-37.5 -12t-37.5 11.5t-22.5 27.5t-10.5 32t-3.5 28v11v1196h-221 v-1196zM125 1638l141 185h219l142 -185h-189l-63 72l-62 -72h-188z" />
<glyph unicode="&#xdc;" horiz-adv-x="749" d="M80 291v18v1196h221v-1196v-11.5t3.5 -26.5t10.5 -33.5t22.5 -26.5t37.5 -12t37.5 11.5t22.5 27.5t10.5 32t3.5 28v11v1196h221v-1196q0 -7 -0.5 -18.5t-6 -45.5t-15.5 -64.5t-32 -68t-52 -64.5t-79 -45.5t-110 -18.5t-110 18t-78.5 46.5t-52 63.5t-32.5 69.5t-15.5 63 t-6.5 46.5zM135 1638v201h191v-201h-191zM424 1638v201h190v-201h-190z" />
<glyph unicode="&#xdd;" horiz-adv-x="704" d="M16 1505l226 -864v-641h221v641l225 864h-217l-111 -481l-6 -14h-4l-6 14l-111 481h-217zM254 1638l106 185h215l-161 -185h-160z" />
<glyph unicode="&#xde;" d="M82 0v1505h219v-241h2q61 0 115 -13.5t105 -46t88 -83t59 -129.5t22 -179q0 -124 -33 -215.5t-90 -141.5t-123 -73t-143 -23v-360h-221zM303 586q102 0 134 45t32 174q0 132 -33 182.5t-133 50.5v-452z" />
<glyph unicode="&#xdf;" horiz-adv-x="733" d="M66 0v1235q0 124 70.5 205.5t209.5 81.5q133 0 201.5 -80.5t68.5 -204.5q0 -108 -88 -174q74 -42 113 -157t39 -331q0 -106 -7.5 -188.5t-21 -143t-35.5 -104t-48 -70.5t-62 -42.5t-73.5 -21t-86.5 -5.5v193q46 0 71.5 25.5t40.5 110.5t15 246q0 169 -15 259t-40.5 117.5 t-71.5 27.5v141q35 0 60.5 33t25.5 84q0 44 -22 72t-64 28q-36 0 -55 -29t-19 -73v-1235h-206z" />
<glyph unicode="&#xe0;" horiz-adv-x="681" d="M49 260q0 77 18 141.5t47 106.5t64.5 75t72 54t67 37t52 30t25.5 27v37v86q0 22 -1 34.5t-6 31t-17.5 27.5t-32.5 9t-33 -11t-17.5 -29t-7 -40t-1.5 -44t0 -41h-207v47q0 124 80 211.5t198 87.5q103 0 177.5 -73.5t74.5 -180.5v-351v-337q0 -109 14 -195h-202 q-19 21 -19 90h-14q-19 -37 -64.5 -71.5t-101.5 -34.5q-19 0 -38.5 5.5t-43.5 24t-42 47t-30 80.5t-12 119zM102 1489h215l107 -184h-160zM252 291q0 -20 3 -40.5t17 -42.5t37 -22q35 0 60.5 20t25.5 48v287q-72 -31 -107.5 -98.5t-35.5 -151.5z" />
<glyph unicode="&#xe1;" horiz-adv-x="681" d="M49 260q0 77 18 141.5t47 106.5t64.5 75t72 54t67 37t52 30t25.5 27v37v86q0 22 -1 34.5t-6 31t-17.5 27.5t-32.5 9t-33 -11t-17.5 -29t-7 -40t-1.5 -44t0 -41h-207v47q0 124 80 211.5t198 87.5q103 0 177.5 -73.5t74.5 -180.5v-351v-337q0 -109 14 -195h-202 q-19 21 -19 90h-14q-19 -37 -64.5 -71.5t-101.5 -34.5q-19 0 -38.5 5.5t-43.5 24t-42 47t-30 80.5t-12 119zM252 291q0 -20 3 -40.5t17 -42.5t37 -22q35 0 60.5 20t25.5 48v287q-72 -31 -107.5 -98.5t-35.5 -151.5zM264 1305l107 184h215l-162 -184h-160z" />
<glyph unicode="&#xe2;" horiz-adv-x="681" d="M49 260q0 77 18 141.5t47 106.5t64.5 75t72 54t67 37t52 30t25.5 27v37v86q0 22 -1 34.5t-6 31t-17.5 27.5t-32.5 9t-33 -11t-17.5 -29t-7 -40t-1.5 -44t0 -41h-207v47q0 124 80 211.5t198 87.5q103 0 177.5 -73.5t74.5 -180.5v-351v-337q0 -109 14 -195h-202 q-19 21 -19 90h-14q-19 -37 -64.5 -71.5t-101.5 -34.5q-19 0 -38.5 5.5t-43.5 24t-42 47t-30 80.5t-12 119zM90 1305l141 184h220l141 -184h-189l-63 71l-61 -71h-189zM252 291q0 -20 3 -40.5t17 -42.5t37 -22q35 0 60.5 20t25.5 48v287q-72 -31 -107.5 -98.5t-35.5 -151.5z " />
<glyph unicode="&#xe3;" horiz-adv-x="681" d="M49 260q0 77 18 141.5t47 106.5t64.5 75t72 54t67 37t52 30t25.5 27v37v86q0 22 -1 34.5t-6 31t-17.5 27.5t-32.5 9t-33 -11t-17.5 -29t-7 -40t-1.5 -44t0 -41h-207v47q0 124 80 211.5t198 87.5q103 0 177.5 -73.5t74.5 -180.5v-351v-337q0 -109 14 -195h-202 q-19 21 -19 90h-14q-19 -37 -64.5 -71.5t-101.5 -34.5q-19 0 -38.5 5.5t-43.5 24t-42 47t-30 80.5t-12 119zM143 1305v151q50 39 109 39q33 0 91.5 -18.5t88.5 -20.5q25 0 52.5 8t41.5 16l15 9v-152q-52 -39 -109 -39q-31 0 -89 19t-91 20q-25 0 -52.5 -8t-41.5 -16z M252 291q0 -20 3 -40.5t17 -42.5t37 -22q35 0 60.5 20t25.5 48v287q-72 -31 -107.5 -98.5t-35.5 -151.5z" />
<glyph unicode="&#xe4;" horiz-adv-x="681" d="M49 260q0 77 18 141.5t47 106.5t64.5 75t72 54t67 37t52 30t25.5 27v37v86q0 22 -1 34.5t-6 31t-17.5 27.5t-32.5 9t-33 -11t-17.5 -29t-7 -40t-1.5 -44t0 -41h-207v47q0 124 80 211.5t198 87.5q103 0 177.5 -73.5t74.5 -180.5v-351v-337q0 -109 14 -195h-202 q-19 21 -19 90h-14q-19 -37 -64.5 -71.5t-101.5 -34.5q-19 0 -38.5 5.5t-43.5 24t-42 47t-30 80.5t-12 119zM102 1305v200h191v-200h-191zM252 291q0 -20 3 -40.5t17 -42.5t37 -22q35 0 60.5 20t25.5 48v287q-72 -31 -107.5 -98.5t-35.5 -151.5zM391 1305v200h191v-200h-191 z" />
<glyph unicode="&#xe5;" horiz-adv-x="681" d="M49 260q0 77 18 141.5t47 106.5t64.5 75t72 54t67 37t52 30t25.5 27v37v86q0 22 -1 34.5t-6 31t-17.5 27.5t-32.5 9t-33 -11t-17.5 -29t-7 -40t-1.5 -44t0 -41h-207v47q0 124 80 211.5t198 87.5q103 0 177.5 -73.5t74.5 -180.5v-351v-337q0 -109 14 -195h-202 q-19 21 -19 90h-14q-19 -37 -64.5 -71.5t-101.5 -34.5q-19 0 -38.5 5.5t-43.5 24t-42 47t-30 80.5t-12 119zM188 1421q0 62 45 103t109 41t108 -41t44 -103t-44 -102.5t-108 -40.5t-109 40.5t-45 102.5zM252 291q0 -20 3 -40.5t17 -42.5t37 -22q35 0 60.5 20t25.5 48v287 q-72 -31 -107.5 -98.5t-35.5 -151.5zM266 1421q0 -29 23 -50t53 -21t53 21t23 50t-23 50.5t-53 21.5t-53 -21.5t-23 -50.5z" />
<glyph unicode="&#xe6;" horiz-adv-x="989" d="M49 260q0 77 18 141.5t47 106.5t64.5 75t72 54t67 37t52 30t25.5 27v123q0 22 -1 34.5t-6 31t-17.5 27.5t-32.5 9t-33 -11t-17.5 -29t-7 -40t-1.5 -44t0 -41h-207v47q0 124 80 211.5t198 87.5q84 0 152 -52q65 52 162 52q55 0 99 -16t71 -41.5t47 -56.5t29 -61.5t14 -56 t6 -41.5v-16v-326h-342v-243q0 -5 0.5 -12.5t4.5 -27t11 -34.5t23 -27t37 -12q35 0 53 28t19 56l1 29v122h193v-129q0 -6 -0.5 -16.5t-6 -40.5t-14.5 -57t-29 -60t-47.5 -57t-71.5 -40.5t-99 -16.5q-159 0 -226 131q-101 -131 -221 -131q-19 0 -38.5 5.5t-43.5 24t-42 47 t-30 80.5t-12 119zM252 291q0 -20 3 -40.5t17 -42.5t37 -22q35 0 60.5 20t25.5 48v287q-72 -31 -107.5 -98.5t-35.5 -151.5zM588 684h149v158v12.5t-3.5 27t-10 34.5t-22 27.5t-37.5 12.5q-34 0 -53 -28.5t-21 -57.5l-2 -28v-158z" />
<glyph unicode="&#xe7;" horiz-adv-x="645" d="M66 315v490q0 332 264 332q137 0 201.5 -71t64.5 -251v-88h-207v135q0 52 -12 71t-47 19q-26 0 -39.5 -15.5t-16 -32t-2.5 -42.5v-604q0 -26 2.5 -42.5t16 -32t39.5 -15.5q35 0 47 19t12 71v156h207v-109q0 -123 -31.5 -194.5t-87.5 -99t-147 -27.5q-264 0 -264 331z M238 -111v-141h63l-41 -133h105l45 133v141h-172z" />
<glyph unicode="&#xe8;" horiz-adv-x="659" d="M66 262v17v563q0 6 0.5 16.5t6 41.5t15 58.5t29.5 61.5t47 58.5t71.5 41.5t98.5 17q55 0 99 -16t71 -41.5t47 -56.5t29 -61.5t14 -56t6 -41.5v-16v-326h-342v-243q0 -5 0.5 -12.5t4.5 -27t11 -34.5t23 -27t37 -12q22 0 37.5 11.5t22.5 28t10.5 33.5t3.5 29v11v122h192 v-129q0 -6 -0.5 -16.5t-6 -40.5t-14.5 -57t-29 -60t-47.5 -57t-71.5 -40.5t-99 -16.5q-54 0 -98 16.5t-71 42.5t-47 57t-29 62.5t-14.5 57.5t-6.5 42zM102 1489h215l107 -184h-160zM258 684h150v158v12.5t-3.5 27t-10.5 34.5t-22.5 27.5t-37.5 12.5q-34 0 -53 -28.5 t-21 -57.5l-2 -28v-158z" />
<glyph unicode="&#xe9;" horiz-adv-x="659" d="M66 262v17v563q0 6 0.5 16.5t6 41.5t15 58.5t29.5 61.5t47 58.5t71.5 41.5t98.5 17q55 0 99 -16t71 -41.5t47 -56.5t29 -61.5t14 -56t6 -41.5v-16v-326h-342v-243q0 -5 0.5 -12.5t4.5 -27t11 -34.5t23 -27t37 -12q22 0 37.5 11.5t22.5 28t10.5 33.5t3.5 29v11v122h192 v-129q0 -6 -0.5 -16.5t-6 -40.5t-14.5 -57t-29 -60t-47.5 -57t-71.5 -40.5t-99 -16.5q-54 0 -98 16.5t-71 42.5t-47 57t-29 62.5t-14.5 57.5t-6.5 42zM258 684h150v158v12.5t-3.5 27t-10.5 34.5t-22.5 27.5t-37.5 12.5q-34 0 -53 -28.5t-21 -57.5l-2 -28v-158zM264 1305 l107 184h215l-162 -184h-160z" />
<glyph unicode="&#xea;" horiz-adv-x="659" d="M66 262v17v563q0 6 0.5 16.5t6 41.5t15 58.5t29.5 61.5t47 58.5t71.5 41.5t98.5 17q55 0 99 -16t71 -41.5t47 -56.5t29 -61.5t14 -56t6 -41.5v-16v-326h-342v-243q0 -5 0.5 -12.5t4.5 -27t11 -34.5t23 -27t37 -12q22 0 37.5 11.5t22.5 28t10.5 33.5t3.5 29v11v122h192 v-129q0 -6 -0.5 -16.5t-6 -40.5t-14.5 -57t-29 -60t-47.5 -57t-71.5 -40.5t-99 -16.5q-54 0 -98 16.5t-71 42.5t-47 57t-29 62.5t-14.5 57.5t-6.5 42zM80 1305l141 184h219l142 -184h-189l-63 71l-62 -71h-188zM258 684h150v158v12.5t-3.5 27t-10.5 34.5t-22.5 27.5 t-37.5 12.5q-34 0 -53 -28.5t-21 -57.5l-2 -28v-158z" />
<glyph unicode="&#xeb;" horiz-adv-x="659" d="M66 262v17v563q0 6 0.5 16.5t6 41.5t15 58.5t29.5 61.5t47 58.5t71.5 41.5t98.5 17q55 0 99 -16t71 -41.5t47 -56.5t29 -61.5t14 -56t6 -41.5v-16v-326h-342v-243q0 -5 0.5 -12.5t4.5 -27t11 -34.5t23 -27t37 -12q22 0 37.5 11.5t22.5 28t10.5 33.5t3.5 29v11v122h192 v-129q0 -6 -0.5 -16.5t-6 -40.5t-14.5 -57t-29 -60t-47.5 -57t-71.5 -40.5t-99 -16.5q-54 0 -98 16.5t-71 42.5t-47 57t-29 62.5t-14.5 57.5t-6.5 42zM90 1305v200h191v-200h-191zM258 684h150v158v12.5t-3.5 27t-10.5 34.5t-22.5 27.5t-37.5 12.5q-34 0 -53 -28.5 t-21 -57.5l-2 -28v-158zM379 1305v200h190v-200h-190z" />
<glyph unicode="&#xec;" horiz-adv-x="370" d="M-33 1489h215l107 -184h-160zM82 0h207v1120h-207v-1120z" />
<glyph unicode="&#xed;" horiz-adv-x="370" d="M82 0h207v1120h-207v-1120zM82 1305l106 184h215l-161 -184h-160z" />
<glyph unicode="&#xee;" horiz-adv-x="370" d="M-66 1305l142 184h219l141 -184h-188l-64 71l-61 -71h-189zM82 0h207v1120h-207v-1120z" />
<glyph unicode="&#xef;" horiz-adv-x="372" d="M-53 1305v200h190v-200h-190zM82 0v1120h207v-1120h-207zM236 1305v200h190v-200h-190z" />
<glyph unicode="&#xf0;" horiz-adv-x="673" d="M76 262v17v579q0 279 172 279q63 0 155 -78q-12 105 -51 203l-82 -72l-55 63l100 88q-11 20 -22.5 36.5t-16.5 22.5l-6 7l109 100q24 -26 53 -61l94 82l56 -66l-101 -88q125 -201 125 -446v-656q0 -6 -0.5 -16.5t-5.5 -40.5t-14 -57t-29 -60t-47 -57t-71 -40.5t-99 -16.5 q-54 0 -98 16.5t-71 42.5t-46.5 57t-28.5 62.5t-14 57.5t-6 42zM270 267q-1 -11 3 -28t9.5 -33t21 -28t36.5 -12q22 0 37.5 11.5t22 28t9.5 33.5t3 29v11v563v12.5t-3 27t-9.5 34.5t-22 27.5t-37.5 12.5q-34 0 -51.5 -28.5t-18.5 -57.5v-28v-563q1 -1 0 -12z" />
<glyph unicode="&#xf1;" horiz-adv-x="690" d="M82 0v1120h207v-94q2 1 32 31.5t67 55t69 24.5q52 0 89 -36.5t51.5 -84.5t14.5 -98v-918h-206v887q0 49 -50 49q-18 0 -35 -13t-25 -27l-7 -13v-883h-207zM147 1305v151q50 39 109 39q33 0 91.5 -18.5t88.5 -20.5q25 0 52.5 8t41.5 16l15 9v-152q-52 -39 -109 -39 q-31 0 -89 19t-91 20q-25 0 -52.5 -8t-41.5 -16z" />
<glyph unicode="&#xf2;" horiz-adv-x="657" d="M63 279v563q0 6 0.5 16.5t5.5 41.5t14 58.5t29 61.5t47 58.5t71 41.5t98 17q55 0 99 -16t71 -41.5t47 -56.5t29 -61.5t14 -56t6 -41.5v-16v-576q0 -6 -0.5 -16.5t-5.5 -40.5t-14 -57t-29 -60t-47 -57t-71 -40.5t-99 -16.5q-54 0 -98 16.5t-71 42.5t-47 57t-29 62.5 t-14 57.5t-5 42zM98 1489h215l107 -184h-160zM258 267q-1 -11 3 -28t9.5 -33t21 -28t36.5 -12q35 0 52.5 28t17.5 56l1 29v563q-1 1 0 12t-2.5 28t-9.5 33.5t-21.5 28.5t-37.5 12q-34 0 -51.5 -28.5t-18.5 -57.5v-28v-563q1 -1 0 -12z" />
<glyph unicode="&#xf3;" horiz-adv-x="657" d="M63 279v563q0 6 0.5 16.5t5.5 41.5t14 58.5t29 61.5t47 58.5t71 41.5t98 17q55 0 99 -16t71 -41.5t47 -56.5t29 -61.5t14 -56t6 -41.5v-16v-576q0 -6 -0.5 -16.5t-5.5 -40.5t-14 -57t-29 -60t-47 -57t-71 -40.5t-99 -16.5q-54 0 -98 16.5t-71 42.5t-47 57t-29 62.5 t-14 57.5t-5 42zM258 267q-1 -11 3 -28t9.5 -33t21 -28t36.5 -12q35 0 52.5 28t17.5 56l1 29v563q-1 1 0 12t-2.5 28t-9.5 33.5t-21.5 28.5t-37.5 12q-34 0 -51.5 -28.5t-18.5 -57.5v-28v-563q1 -1 0 -12zM260 1305l107 184h215l-162 -184h-160z" />
<glyph unicode="&#xf4;" horiz-adv-x="657" d="M63 279v563q0 6 0.5 16.5t5.5 41.5t14 58.5t29 61.5t47 58.5t71 41.5t98 17q55 0 99 -16t71 -41.5t47 -56.5t29 -61.5t14 -56t6 -41.5v-16v-576q0 -6 -0.5 -16.5t-5.5 -40.5t-14 -57t-29 -60t-47 -57t-71 -40.5t-99 -16.5q-54 0 -98 16.5t-71 42.5t-47 57t-29 62.5 t-14 57.5t-5 42zM78 1305l141 184h219l142 -184h-189l-63 71l-62 -71h-188zM258 267q-1 -11 3 -28t9.5 -33t21 -28t36.5 -12q35 0 52.5 28t17.5 56l1 29v563q-1 1 0 12t-2.5 28t-9.5 33.5t-21.5 28.5t-37.5 12q-34 0 -51.5 -28.5t-18.5 -57.5v-28v-563q1 -1 0 -12z" />
<glyph unicode="&#xf5;" horiz-adv-x="657" d="M63 279v563q0 6 0.5 16.5t5.5 41.5t14 58.5t29 61.5t47 58.5t71 41.5t98 17q55 0 99 -16t71 -41.5t47 -56.5t29 -61.5t14 -56t6 -41.5v-16v-576q0 -6 -0.5 -16.5t-5.5 -40.5t-14 -57t-29 -60t-47 -57t-71 -40.5t-99 -16.5q-54 0 -98 16.5t-71 42.5t-47 57t-29 62.5 t-14 57.5t-5 42zM131 1305v151q50 39 109 39q33 0 91.5 -18.5t88.5 -20.5q25 0 52 8t42 16l14 9v-152q-51 -39 -108 -39q-31 0 -89 19t-91 20q-25 0 -52.5 -8t-41.5 -16zM258 267q-1 -11 3 -28t9.5 -33t21 -28t36.5 -12q35 0 52.5 28t17.5 56l1 29v563q-1 1 0 12t-2.5 28 t-9.5 33.5t-21.5 28.5t-37.5 12q-34 0 -51.5 -28.5t-18.5 -57.5v-28v-563q1 -1 0 -12z" />
<glyph unicode="&#xf6;" horiz-adv-x="657" d="M63 279v563q0 6 0.5 16.5t5.5 41.5t14 58.5t29 61.5t47 58.5t71 41.5t98 17q55 0 99 -16t71 -41.5t47 -56.5t29 -61.5t14 -56t6 -41.5v-16v-576q0 -6 -0.5 -16.5t-5.5 -40.5t-14 -57t-29 -60t-47 -57t-71 -40.5t-99 -16.5q-54 0 -98 16.5t-71 42.5t-47 57t-29 62.5 t-14 57.5t-5 42zM90 1305v200h191v-200h-191zM258 267q-1 -11 3 -28t9.5 -33t21 -28t36.5 -12q35 0 52.5 28t17.5 56l1 29v563q-1 1 0 12t-2.5 28t-9.5 33.5t-21.5 28.5t-37.5 12q-34 0 -51.5 -28.5t-18.5 -57.5v-28v-563q1 -1 0 -12zM379 1305v200h190v-200h-190z" />
<glyph unicode="&#xf8;" horiz-adv-x="657" d="M63 279v563q0 6 0.5 16.5t5.5 41.5t14 58.5t29 61.5t47 58.5t71 41.5t98 17q47 0 106 -19l21 80h75l-30 -121q42 -37 65.5 -94.5t26.5 -96.5l2 -38v-576q0 -6 -0.5 -16.5t-5.5 -40.5t-14 -57t-29 -60t-47 -57t-71 -40.5t-99 -16.5q-57 0 -103 16l-20 -78h-80l31 121 q-42 38 -65 97t-25 99zM258 436l125 486q-17 34 -55 34q-34 0 -51.5 -28.5t-18.5 -57.5v-28v-406zM274 197q17 -31 54 -31q35 0 52.5 28t17.5 56l1 29v403z" />
<glyph unicode="&#xf9;" horiz-adv-x="690" d="M78 203v917h207v-887q0 -29 13 -39t36 -10q18 0 35 13.5t25 26.5l7 14v882h207v-1120h-207v94q-1 -1 -31.5 -31t-67.5 -54.5t-69 -24.5q-52 0 -89 36.5t-51.5 84.5t-14.5 98zM113 1489h215l106 -184h-160z" />
<glyph unicode="&#xfa;" horiz-adv-x="690" d="M78 203v917h207v-887q0 -29 13 -39t36 -10q18 0 35 13.5t25 26.5l7 14v882h207v-1120h-207v94q-1 -1 -31.5 -31t-67.5 -54.5t-69 -24.5q-52 0 -89 36.5t-51.5 84.5t-14.5 98zM274 1305l107 184h215l-162 -184h-160z" />
<glyph unicode="&#xfb;" horiz-adv-x="690" d="M78 203v917h207v-887q0 -29 13 -39t36 -10q18 0 35 13.5t25 26.5l7 14v882h207v-1120h-207v94q-1 -1 -31.5 -31t-67.5 -54.5t-69 -24.5q-52 0 -89 36.5t-51.5 84.5t-14.5 98zM94 1305l142 184h219l141 -184h-188l-64 71l-61 -71h-189z" />
<glyph unicode="&#xfc;" horiz-adv-x="690" d="M78 203v917h207v-887q0 -29 13 -39t36 -10q18 0 35 13.5t25 26.5l7 14v882h207v-1120h-207v94q-1 -1 -31.5 -31t-67.5 -54.5t-69 -24.5q-52 0 -89 36.5t-51.5 84.5t-14.5 98zM106 1305v200h191v-200h-191zM395 1305v200h191v-200h-191z" />
<glyph unicode="&#xfd;" horiz-adv-x="634" d="M25 1120l190 -1153q0 -67 -36 -122.5t-97 -61.5l-49 4v-184q69 -4 92 -4q78 0 142 47.5t99.5 118t45.5 151.5l198 1204h-202l-82 -688l-4 -57h-9l-4 57l-82 688h-202zM231 1305l107 184h215l-162 -184h-160z" />
<glyph unicode="&#xfe;" horiz-adv-x="686" d="M82 -385v1890h207v-458q10 10 26.5 25t60 40t77.5 25q77 0 118 -69t41 -150v-715q0 -81 -41 -150t-118 -69q-34 0 -75 22.5t-65 45.5l-24 22v-459h-207zM289 246q0 -25 19 -46.5t42 -21.5t39.5 19.5t16.5 48.5v628q0 29 -16.5 48.5t-39.5 19.5t-42 -20t-19 -48v-628z" />
<glyph unicode="&#xff;" horiz-adv-x="634" d="M25 1120h202l82 -688l4 -57h9l4 57l82 688h202l-198 -1204q-10 -81 -45.5 -151.5t-99.5 -118t-142 -47.5l-92 4v184q16 -4 49 -4q61 6 97 61.5t36 122.5zM78 1305v200h190v-200h-190zM367 1305v200h190v-200h-190z" />
<glyph unicode="&#x152;" horiz-adv-x="983" d="M68 292v17v887q0 6 0.5 17.5t6 43.5t15.5 61t32 65t51.5 61.5t78.5 43t110 17.5h580v-227h-285v-395h205v-242h-205v-414h285v-227h-580q-61 0 -110 17t-78.5 44.5t-51.5 60t-32 65.5t-15.5 60.5t-6.5 44.5zM289 297.5q0 -7.5 3.5 -26.5t10 -33.5t22 -26.5t37.5 -12 t37.5 11.5t22.5 27.5t10.5 32t3.5 28v11v901q-7 97 -74 97q-35 0 -53 -27.5t-19 -55.5l-1 -28v-887v-11.5z" />
<glyph unicode="&#x153;" horiz-adv-x="995" d="M63 279v563q0 6 0.5 16.5t5.5 41.5t14 58.5t29 61.5t47 58.5t71 41.5t98 17q105 0 172 -60q67 60 170 60q55 0 99 -16t71 -41.5t47 -56.5t29 -61.5t14 -56t6 -41.5v-16v-326h-342v-250q0 -10 2.5 -24.5t9.5 -34.5t23.5 -33.5t40.5 -13.5q35 0 53 28t19 56l1 29v122h193 v-129q0 -6 -0.5 -16.5t-6 -40.5t-14.5 -57t-29 -60t-47.5 -57t-71.5 -40.5t-99 -16.5q-106 0 -170 57q-67 -57 -170 -57q-54 0 -98 16.5t-71 42.5t-47 57t-29 62.5t-14 57.5t-5 42zM258 267q-1 -11 3 -28t9.5 -33t21 -28t36.5 -12q35 0 52.5 28t17.5 56l1 29v563q-1 1 0 12 t-2.5 28t-9.5 33.5t-21.5 28.5t-37.5 12q-34 0 -51.5 -28.5t-18.5 -57.5v-28v-563q1 -1 0 -12zM594 684h149v158v12.5t-3.5 27t-10 34.5t-22 27.5t-37.5 12.5q-31 0 -49.5 -24.5t-22.5 -45.5t-4 -38v-164z" />
<glyph unicode="&#x178;" horiz-adv-x="704" d="M16 1505h217l111 -481l6 -14h4l6 14l111 481h217l-225 -864v-641h-221v641zM113 1638v201h190v-201h-190zM401 1638v201h191v-201h-191z" />
<glyph unicode="&#x2c6;" horiz-adv-x="1021" d="M260 1305l141 184h220l141 -184h-189l-63 71l-61 -71h-189z" />
<glyph unicode="&#x2dc;" horiz-adv-x="1024" d="M313 1305v151q50 39 109 39q33 0 91.5 -18.5t88.5 -20.5q25 0 52.5 8t41.5 16l15 9v-152q-52 -39 -109 -39q-31 0 -89 19t-91 20q-25 0 -52.5 -8t-41.5 -16z" />
<glyph unicode="&#x2000;" horiz-adv-x="952" />
<glyph unicode="&#x2001;" horiz-adv-x="1905" />
<glyph unicode="&#x2002;" horiz-adv-x="952" />
<glyph unicode="&#x2003;" horiz-adv-x="1905" />
<glyph unicode="&#x2004;" horiz-adv-x="635" />
<glyph unicode="&#x2005;" horiz-adv-x="476" />
<glyph unicode="&#x2006;" horiz-adv-x="317" />
<glyph unicode="&#x2007;" horiz-adv-x="317" />
<glyph unicode="&#x2008;" horiz-adv-x="238" />
<glyph unicode="&#x2009;" horiz-adv-x="381" />
<glyph unicode="&#x200a;" horiz-adv-x="105" />
<glyph unicode="&#x2010;" horiz-adv-x="444" d="M74 455v194h297v-194h-297z" />
<glyph unicode="&#x2011;" horiz-adv-x="444" d="M74 455v194h297v-194h-297z" />
<glyph unicode="&#x2012;" horiz-adv-x="444" d="M74 455v194h297v-194h-297z" />
<glyph unicode="&#x2013;" horiz-adv-x="806" d="M74 649v195h659v-195h-659z" />
<glyph unicode="&#x2014;" horiz-adv-x="972" d="M74 649v195h825v-195h-825z" />
<glyph unicode="&#x2018;" horiz-adv-x="309" d="M49 1012v227l113 266h102l-71 -266h71v-227h-215z" />
<glyph unicode="&#x2019;" horiz-adv-x="309" d="M45 1012l72 266h-72v227h215v-227l-113 -266h-102z" />
<glyph unicode="&#x201a;" horiz-adv-x="309" d="M45 0v227h215v-227l-113 -266h-102l72 266h-72z" />
<glyph unicode="&#x201c;" horiz-adv-x="624" d="M53 1012v227l113 266h102l-71 -266h71v-227h-215zM356 1012v227l113 266h102l-71 -266h71v-227h-215z" />
<glyph unicode="&#x201d;" horiz-adv-x="624" d="M53 1012l72 266h-72v227h215v-227l-112 -266h-103zM356 1012l72 266h-72v227h215v-227l-112 -266h-103z" />
<glyph unicode="&#x201e;" horiz-adv-x="624" d="M53 0v227h215v-227l-112 -266h-103l72 266h-72zM356 0v227h215v-227l-112 -266h-103l72 266h-72z" />
<glyph unicode="&#x2022;" horiz-adv-x="663" d="M82 817q0 103 73.5 175.5t178.5 72.5q103 0 175.5 -72.5t72.5 -175.5q0 -105 -72.5 -178.5t-175.5 -73.5q-106 0 -179 73t-73 179z" />
<glyph unicode="&#x2026;" horiz-adv-x="964" d="M53 0v227h215v-227h-215zM375 0v227h215v-227h-215zM696 0v227h215v-227h-215z" />
<glyph unicode="&#x202f;" horiz-adv-x="381" />
<glyph unicode="&#x205f;" horiz-adv-x="476" />
<glyph unicode="&#x20ac;" horiz-adv-x="813" d="M53 547v137h107v137h-107v137h107v238q0 7 0.5 18.5t6 45.5t15.5 65t32 68.5t52 64.5t79 45.5t110 18.5t110 -18t78.5 -46.5t52 -63.5t32.5 -70t15.5 -63.5t6.5 -46.5v-18v-84h-207v84q-1 1 0.5 11.5t-3.5 27.5t-12 33t-25 27.5t-44 11.5q-22 0 -38 -11.5t-23.5 -27.5 t-11.5 -32.5t-4 -27.5l-1 -12v-238h233v-137h-233v-137h233v-137h-233v-238q0 -4 0.5 -11.5t4.5 -26.5t11.5 -33.5t23.5 -26.5t38 -12q26 0 44 11.5t25.5 27.5t11.5 32t4 28l-1 11v84h207v-84q0 -7 -0.5 -18.5t-6 -45.5t-15.5 -64.5t-32 -68t-52 -64.5t-79 -45.5t-110 -18.5 t-110 18t-78.5 46.5t-52 63.5t-32.5 69.5t-15.5 63t-6.5 46.5v18v238h-107z" />
<glyph unicode="&#x2122;" horiz-adv-x="937" d="M74 1401v104h321v-104h-104v-580h-113v580h-104zM440 821v684h138l67 -319h6l68 319h137v-684h-104v449l-78 -449h-51l-80 449v-449h-103z" />
<glyph unicode="&#x25fc;" horiz-adv-x="1116" d="M0 0v1116h1116v-1116h-1116z" />
<glyph unicode="&#xfb01;" horiz-adv-x="772" d="M20 934v186h105v31v44.5t2 48.5t6 55t13 53t21 53t31.5 44.5t44.5 38t59.5 23t76.5 9.5q34 0 70.5 -4t56.5 -8l20 -3v-184q-40 12 -110 12q-20 0 -35.5 -8.5t-24 -25.5t-14 -32t-7.5 -39.5t-2.5 -36t-0.5 -33.5v-9v-29h358v-1120h-207v934h-151v-934h-207v934h-105z" />
<glyph unicode="&#xfb02;" horiz-adv-x="772" d="M20 934v186h105v31v44.5t2 48.5t6 55t13 53t21 53t31.5 44.5t44.5 38t59.5 23t76.5 9.5q34 0 70.5 -4t56.5 -8l20 -3h164v-1505h-207v1329q-36 4 -67 4q-20 0 -35.5 -8.5t-24 -25.5t-14 -32t-7.5 -39.5t-2.5 -36t-0.5 -33.5v-9v-29h104v-186h-104v-934h-207v934h-105z " />
</font>
</defs>
</svg>
