<svg xmlns="http://www.w3.org/2000/svg">
<defs>
<font id="BebasNeue" horiz-adv-x="396" >
  <font-face 
    font-family="Bebas Neue"
    font-weight="400"
    font-stretch="normal"
    units-per-em="1000"
    panose-1="2 11 6 6 2 2 2 5 2 1"
    ascent="750"
    descent="-250"
    x-height="700"
    cap-height="700"
    bbox="-137 -179 1000 894"
    underline-thickness="50"
    underline-position="-60"
    unicode-range="U+0020-2248"
  />
<missing-glyph horiz-adv-x="733" 
d="M345 317q-12 0 -23.5 12.5t-14.5 12.5t-11 -2t-14 -2q-8 0 -14.5 8t-6.5 17q0 22 8 35q-7 -7 -15.5 -36.5t-25.5 -41.5q-19 -11 -19 -40q0 -4 5.5 -12.5t11.5 -15.5l5 -6q0 -4 -3 -4q-7 0 -12 5q13 -68 48 -104h-55q-35 114 -35 226q0 105 40.5 171.5t135.5 66.5
q190 0 190 -254q0 -75 -25 -210h-73q53 47 62 117q-4 -8 -13 -8q-3 0 -3 2t2 3q9 6 12 11t4 23q-4 -6 -15 -6q-1 0 -10.5 -4.5t-15.5 -4.5q-14 0 -40 3.5t-70 3.5q-22 0 -52.5 -6t-38.5 -6q-5 0 -13 2t-11 2q-28 0 -28 12q0 10 37 18.5t74 8.5q5 0 12 -0.5t12 -0.5t15.5 2
t14.5 2q112 0 127 -20q-1 16 -14 29t-30 13q-6 0 -6 7v24q0 33 -16 34q4 -7 4 -17q0 -18 -11 -32t-27 -14q-4 0 -10 2l-7 2q-1 0 -14.5 -14t-27.5 -14zM733 291v-148q-22 48 -69 112.5t-67 64.5q3 -42 3 -49q0 -45 -15 -128h-42q16 104 16 199q0 319 -213 319
q-53 0 -91.5 -26.5t-59 -72.5t-30 -97.5t-9.5 -111.5q0 -123 29 -210h-47q-19 67 -19 184q-17 -9 -39.5 -43.5t-49 -84.5t-30.5 -56v148q11 27 33 54t50 53.5t30 28.5q3 72 27 135t75.5 107.5t120.5 44.5q67 0 115.5 -22.5t76.5 -64t42.5 -87t22.5 -105.5q22 -5 68 -48
t72 -96zM345 503q-3 3 -3 6q0 2 2 2q1 0 6 -4.5t15 -8.5t22 -4q16 0 29 4t20 8l6 5q4 0 4 -2l-8 -8q24 0 52 -11q-29 80 -139 80q-55 0 -92 -33t-50 -85q37 20 41 39q-6 4 -6 7q0 4 3 4l2 -2q2 -1 6.5 -3.5t10 -5t13.5 -4t17 -1.5q24 0 49 17zM371 430q0 10 -4.5 28t-9.5 18
q-10 0 -19 -39t-14 -39q-3 0 -9.5 3t-11.5 3q-13 0 -21 -10.5t-8 -24.5q0 -12 11 -14q11 0 18 6.5t9 6.5t12 -13.5t20 -13.5q14 0 25 10.5t12 10.5q3 0 10 -3.5t9 -3.5q10 0 18 11t8 24q0 10 -6 18t-16 8q-7 0 -14.5 -6.5t-11.5 -6.5q-7 0 -7 13v14zM507 397q-9 67 -9 68

<glyph glyph-name=".notdef" horiz-adv-x="733" 
d="M345 317q-12 0 -23.5 12.5t-14.5 12.5t-11 -2t-14 -2q-8 0 -14.5 8t-6.5 17q0 22 8 35q-7 -7 -15.5 -36.5t-25.5 -41.5q-19 -11 -19 -40q0 -4 5.5 -12.5t11.5 -15.5l5 -6q0 -4 -3 -4q-7 0 -12 5q13 -68 48 -104h-55q-35 114 -35 226q0 105 40.5 171.5t135.5 66.5
q190 0 190 -254q0 -75 -25 -210h-73q53 47 62 117q-4 -8 -13 -8q-3 0 -3 2t2 3q9 6 12 11t4 23q-4 -6 -15 -6q-1 0 -10.5 -4.5t-15.5 -4.5q-14 0 -40 3.5t-70 3.5q-22 0 -52.5 -6t-38.5 -6q-5 0 -13 2t-11 2q-28 0 -28 12q0 10 37 18.5t74 8.5q5 0 12 -0.5t12 -0.5t15.5 2
t14.5 2q112 0 127 -20q-1 16 -14 29t-30 13q-6 0 -6 7v24q0 33 -16 34q4 -7 4 -17q0 -18 -11 -32t-27 -14q-4 0 -10 2l-7 2q-1 0 -14.5 -14t-27.5 -14zM733 291v-148q-22 48 -69 112.5t-67 64.5q3 -42 3 -49q0 -45 -15 -128h-42q16 104 16 199q0 319 -213 319
q-53 0 -91.5 -26.5t-59 -72.5t-30 -97.5t-9.5 -111.5q0 -123 29 -210h-47q-19 67 -19 184q-17 -9 -39.5 -43.5t-49 -84.5t-30.5 -56v148q11 27 33 54t50 53.5t30 28.5q3 72 27 135t75.5 107.5t120.5 44.5q67 0 115.5 -22.5t76.5 -64t42.5 -87t22.5 -105.5q22 -5 68 -48
t72 -96zM345 503q-3 3 -3 6q0 2 2 2q1 0 6 -4.5t15 -8.5t22 -4q16 0 29 4t20 8l6 5q4 0 4 -2l-8 -8q24 0 52 -11q-29 80 -139 80q-55 0 -92 -33t-50 -85q37 20 41 39q-6 4 -6 7q0 4 3 4l2 -2q2 -1 6.5 -3.5t10 -5t13.5 -4t17 -1.5q24 0 49 17zM371 430q0 10 -4.5 28t-9.5 18
q-10 0 -19 -39t-14 -39q-3 0 -9.5 3t-11.5 3q-13 0 -21 -10.5t-8 -24.5q0 -12 11 -14q11 0 18 6.5t9 6.5t12 -13.5t20 -13.5q14 0 25 10.5t12 10.5q3 0 10 -3.5t9 -3.5q10 0 18 11t8 24q0 10 -6 18t-16 8q-7 0 -14.5 -6.5t-11.5 -6.5q-7 0 -7 13v14zM507 397q-9 67 -9 68
l-5 3q0 -21 -18 -32t-41 -11q-21 0 -37 12.5t-16 29.5q0 1 1 4t1 5q-12 2 -15 4q6 -9 10 -24t5.5 -24t4.5 -9q7 2 15 2q19 0 31 -14q34 0 34 -51q0 -3 8 -7t18.5 -13t15.5 -22q0 1 -3 79zM383 310q-1 0 -8 -1t-15.5 -2t-13.5 -1t-13 1.5t-11 1.5q-15 0 -36 -4t-35 -9t-14 -8
q0 -10 20 -10q24 0 54 6.5t44 6.5q19 0 57.5 -3.5t52.5 -3.5q5 0 9.5 2t7.5 4t3 3q0 5 -36 11t-66 6zM267 413q-18 0 -31 10t-15 21q-4 -2 -15 -5q-4 -16 -4 -43q0 -50 3 -78q4 6 22 22t20 31q5 37 38 41q12 5 23 5q5 0 8.5 8.5t9.5 24.5t16 28l-13 -4q-1 -24 -18.5 -42.5
t-43.5 -18.5zM419 465q-13 0 -16 13q-5 0 -8.5 -5.5t-3.5 -9.5q0 -10 15 -17t31 -7q14 0 29 8.5t15 21.5q0 8 -14.5 12.5t-28.5 4.5q-5 -21 -19 -21zM267 427q14 0 30 11t16 24q0 6 -1 9h-9q-11 0 -18 1q-5 -14 -18 -14q-10 0 -15 5q-4 -4 -18 -12q4 -24 33 -24zM266 288
q-2 0 -2 3q0 12 107 12q93 0 93 -8q0 -3 -3 -3q-35 5 -88 5q-63 0 -107 -9zM305 262q0 10 63 10q31 0 31 -8q0 -3 -2 -3q-4 0 -10 2t-10 2q-11 0 -26 -0.5t-20 -0.5q-4 0 -11.5 -3t-10.5 -3q-4 0 -4 4zM417 473q9 0 9 10v3q-1 0 -16 -6q0 -7 7 -7zM266 466q7 0 10 9
q-6 1 -11 4q0 -4 -6 -10q1 -3 7 -3zM323 34l-5 48l-8 -82h-21l14 125h25l5 -60l19 60h26l-13 -125h-21l8 82l-15 -48h-14zM65 22q-1 -22 -21 -22h-37l12 125h37q20 0 18 -21zM280 44q-1 -12 -10 -17l8 -27h-21l-7 23h-6l-3 -23h-23l13 125h37q20 0 18 -21zM182 0l4 23h-14
l-3 -23h-21l11 104q1 21 22 21h17q20 0 18 -21l-11 -104h-23zM414 0l3 23h-13l-3 -23h-23l11 104q1 21 24 21h15q22 0 20 -21l-13 -104h-21zM590 0l15 125h35q22 0 20 -21l-6 -60q-2 -21 -24 -21h-14l-3 -23h-23zM112 0l3 23h-13l-3 -23h-23l15 125h21l-9 -83h13l9 83h23
l-14 -125h-22zM533 125h23l-9 -79q0 -4 4 -4h5q5 0 5 4l8 79h21l-8 -81q-1 -19 -19 -21l-9 -23h-23l9 23q-16 2 -15 21zM509 106l-11 -106h-23l11 106h-13l2 19h49l-2 -19h-13zM52 102q1 4 -3 4h-9l-10 -88h11q3 0 3 4zM636 102q1 4 -3 4h-9l-7 -64h9q5 0 5 4zM173 42h14
l7 60q0 4 -3 4h-6q-6 0 -6 -4zM264 102q0 4 -3 4h-9l-7 -64h9q5 0 5 4zM405 42h13l6 60q0 4 -3 4h-5q-5 0 -5 -4zM711 57l-2 -18h-22l-2 -21h28l-2 -18h-49l13 125h49l-2 -19h-28l-5 -49h22z" />
    <glyph glyph-name=".null" horiz-adv-x="0" 
 />
    <glyph glyph-name="nonmarkingreturn" horiz-adv-x="333" 
 />
    <glyph glyph-name="space" unicode=" " horiz-adv-x="155" 
 />
    <glyph glyph-name="exclam" unicode="!" horiz-adv-x="190" 
d="M136 155h-82l-14 253v292h110v-292zM42 106h106v-106h-106v106z" />
    <glyph glyph-name="quotedbl" unicode="&#x22;" horiz-adv-x="325" 
d="M55 494l-15 206h106l-16 -206h-75zM194 494l-15 206h106l-16 -206h-75z" />
    <glyph glyph-name="numbersign" unicode="#" horiz-adv-x="410" 
d="M198 0l21 200h-65l-21 -200h-90l21 200h-49l8 78h49l19 183h-50l8 78h50l17 161h90l-17 -161h65l17 161h90l-17 -161h51l-8 -78h-51l-19 -183h51l-8 -78h-51l-21 -200h-90zM181 461l-19 -183h65l19 183h-65z" />
    <glyph glyph-name="dollar" unicode="$" 
d="M37 522q0 145 116 171v52h90v-52q118 -24 118 -171v-22h-104v29q0 69 -55 69t-55 -69q0 -38 20 -69.5t74 -74.5q67 -54 94 -100.5t27 -106.5q0 -72 -30.5 -116t-88.5 -56v-51h-90v51q-119 24 -119 172v48h104v-55q0 -68 57 -68t57 68q0 39 -20 70.5t-74 73.5
q-67 53 -94 99.5t-27 107.5z" />
    <glyph glyph-name="percent" unicode="%" horiz-adv-x="627" 
d="M104 598v-240q0 -44 36 -44t36 44v240q0 44 -36 44t-36 -44zM34 363v230q0 54 27 83t79 29t79 -29t27 -83v-230q0 -54 -27 -83t-79 -29t-79 29t-27 83zM140 0l276 700h65l-276 -700h-65zM451 342v-240q0 -44 36 -44t36 44v240q0 44 -36 44t-36 -44zM381 107v230
q0 54 27 83t79 29t79 -29t27 -83v-230q0 -54 -27 -83t-79 -29t-79 29t-27 83z" />
    <glyph glyph-name="ampersand" unicode="&#x26;" horiz-adv-x="414" 
d="M41 223q0 112 76 146v2q-76 32 -76 143v13q0 173 164 173h126v-100h-124q-56 0 -56 -68v-43q0 -40 16.5 -57t49.5 -17h48v78h110v-78h29v-100h-29v-230q0 -57 12 -85h-112q-8 22 -10 55h-2q-29 -63 -100 -63q-122 0 -122 160v71zM151 161q0 -69 57 -69q54 0 57 61v162
h-42q-38 0 -55 -20.5t-17 -68.5v-65z" />
    <glyph glyph-name="quotesingle" unicode="'" horiz-adv-x="180" 
d="M52 494l-15 206h106l-16 -206h-75z" />
    <glyph glyph-name="parenleft" unicode="(" horiz-adv-x="251" 
d="M201 700h34v-90h-27q-27 0 -39 -13.5t-12 -49.5v-394q0 -36 12 -49.5t39 -13.5h27v-90h-34q-83 0 -118.5 35t-35.5 118v394q0 83 35.5 118t118.5 35z" />
    <glyph glyph-name="parenright" unicode=")" horiz-adv-x="251" 
d="M16 700h34q83 0 118.5 -35t35.5 -118v-394q0 -83 -35.5 -118t-118.5 -35h-34v90h27q27 0 39 13.5t12 49.5v394q0 36 -12 49.5t-39 13.5h-27v90z" />
    <glyph glyph-name="asterisk" unicode="*" 
d="M30 610l149 -75l-26 165h90l-26 -165l149 75l28 -85l-164 -28l117 -117l-72 -53l-77 148l-77 -148l-72 53l117 117l-164 28z" />
    <glyph glyph-name="plus" unicode="+" 
d="M237 524v-135h134v-78h-134v-137h-78v137h-134v78h134v135h78z" />
    <glyph glyph-name="comma" unicode="," horiz-adv-x="186" 
d="M82 0h-42v106h106v-95l-48 -111h-45z" />
    <glyph glyph-name="hyphen" unicode="-" horiz-adv-x="270" 
d="M35 300v100h200v-100h-200z" />
    <glyph glyph-name="period" unicode="." horiz-adv-x="186" 
d="M40 106h106v-106h-106v106z" />
    <glyph glyph-name="slash" unicode="/" horiz-adv-x="381" 
d="M5 0l276 700h95l-276 -700h-95z" />
    <glyph glyph-name="zero" unicode="0" 
d="M141 539v-378q0 -69 57 -69t57 69v378q0 69 -57 69t-57 -69zM31 168v364q0 84 43 130t124 46t124 -46t43 -130v-364q0 -84 -43 -130t-124 -46t-124 46t-43 130z" />
    <glyph glyph-name="one" unicode="1" 
d="M108 534v78q40 0 65.5 13.5t35 29.5t20.5 45h74v-700h-110v534h-85z" />
    <glyph glyph-name="two" unicode="2" 
d="M258 528q0 45 -14.5 62.5t-42.5 17.5q-57 0 -57 -69v-75h-104v68q0 85 42 130.5t122 45.5t122 -45.5t42 -130.5q0 -71 -30.5 -133.5t-105.5 -143.5q-48 -52 -65.5 -82t-17.5 -58q0 -10 1 -15h208v-100h-318v86q0 59 24.5 109t85.5 114q62 65 85 113t23 106z" />
    <glyph glyph-name="three" unicode="3" 
d="M252 489v39q0 45 -14.5 62.5t-42.5 17.5q-57 0 -57 -69v-45h-104v38q0 85 42 130.5t122 45.5t122 -45.5t42 -130.5v-18q0 -111 -77 -143v-2q77 -34 77 -146v-55q0 -85 -42 -130.5t-122 -45.5t-122 45.5t-42 130.5v58h104v-65q0 -69 57 -69q28 0 42.5 17.5t14.5 61.5v55
q0 48 -17 68.5t-55 20.5h-37v100h43q33 0 49.5 17t16.5 57z" />
    <glyph glyph-name="four" unicode="4" 
d="M14 127v100l200 473h120v-473h52v-100h-52v-127h-110v127h-210zM115 227h109v259h-2z" />
    <glyph glyph-name="five" unicode="5" 
d="M35 226h104v-65q0 -68 57 -68t57 68v154q0 69 -57 69t-57 -69v-21h-104l20 406h290v-100h-192l-9 -167h2q31 51 95 51q122 0 122 -160v-156q0 -85 -42 -130.5t-122 -45.5t-122 45.5t-42 130.5v58z" />
    <glyph glyph-name="six" unicode="6" 
d="M33 168v358q0 182 168 182q80 0 122 -45.5t42 -130.5v-18h-104v25q0 69 -57 69q-31 0 -46 -19t-15 -67v-127h2q29 61 100 61q122 0 122 -160v-128q0 -84 -43 -130t-124 -46t-124 46t-43 130zM200 356q-57 0 -57 -69v-126q0 -68 57 -68t57 68v126q0 69 -57 69z" />
    <glyph glyph-name="seven" unicode="7" 
d="M33 700h330v-96l-162 -604h-110l161 600h-219v100z" />
    <glyph glyph-name="eight" unicode="8" 
d="M370 168q0 -84 -44.5 -130t-127.5 -46t-127.5 46t-44.5 130v55q0 107 68 145v2q-68 37 -68 140v22q0 84 44.5 130t127.5 46t127.5 -46t44.5 -130v-22q0 -102 -68 -140v-2q68 -38 68 -145v-55zM136 171q0 -79 62 -79q61 0 62 79v65q0 79 -62 79t-62 -79v-65zM136 528v-39
q0 -74 62 -74t62 74v39q0 80 -62 80t-62 -80z" />
    <glyph glyph-name="nine" unicode="9" 
d="M363 532v-358q0 -182 -168 -182q-80 0 -122 45.5t-42 130.5v18h104v-25q0 -69 57 -69q31 0 46 19t15 67v127h-2q-29 -61 -100 -61q-122 0 -122 160v128q0 84 43 130t124 46t124 -46t43 -130zM196 344q57 0 57 69v126q0 68 -57 68t-57 -68v-126q0 -69 57 -69z" />
    <glyph glyph-name="colon" unicode=":" horiz-adv-x="186" 
d="M40 106h106v-106h-106v106zM40 487h106v-106h-106v106z" />
    <glyph glyph-name="semicolon" unicode=";" horiz-adv-x="186" 
d="M82 0h-42v106h106v-95l-48 -111h-45zM40 487h106v-106h-106v106z" />
    <glyph glyph-name="less" unicode="&#x3c;" 
d="M356 191l-326 120v78l326 120v-79l-224 -80l224 -80v-79z" />
    <glyph glyph-name="equal" unicode="=" 
d="M35 308h326v-78h-326v78zM35 470h326v-78h-326v78z" />
    <glyph glyph-name="greater" unicode="&#x3e;" 
d="M366 311l-326 -120v79l224 80l-224 80v79l326 -120v-78z" />
    <glyph glyph-name="question" unicode="?" horiz-adv-x="360" 
d="M218 155h-98q-6 18 -6 43q0 42 12.5 77.5t44.5 80.5q36 51 49.5 91.5t13.5 91.5q0 69 -55 69t-55 -69v-76h-104v69q0 85 41 130.5t121 45.5t121 -45.5t41 -130.5q0 -56 -16.5 -101.5t-57.5 -99.5q-32 -43 -44 -73t-12 -64q0 -22 4 -39zM115 106h106v-106h-106v106z" />
    <glyph glyph-name="at" unicode="@" horiz-adv-x="689" 
d="M476 127q-81 0 -87 66h-2q-29 -60 -94 -60q-45 0 -69.5 31.5t-24.5 88.5q0 12 2 34l11 101q15 148 120 148q62 0 82 -61h2l9 57h93l-30 -289q-3 -25 20 -25q39 0 59.5 69.5t20.5 156.5q0 98 -49 154.5t-150 56.5q-132 0 -201.5 -98t-69.5 -272q0 -124 58.5 -192.5
t174.5 -68.5q119 0 207 68l-8 -96q-84 -56 -205 -56q-163 0 -242 93.5t-79 256.5q0 94 23.5 175t68 142.5t116 97t161.5 35.5q148 0 213 -80t65 -214q0 -87 -19 -152.5t-50 -100t-62.5 -50.5t-63.5 -16zM307 377l-9 -85q-1 -8 -1 -15q0 -49 44 -51q23 -1 37.5 14.5
t18.5 48.5l10 95q1 6 1 12q0 22 -12 33t-32 11q-50 0 -57 -63z" />
    <glyph glyph-name="A" unicode="A" horiz-adv-x="407" 
d="M284 700l112 -700h-111l-19 127h-135l-19 -127h-101l112 700h161zM197 576l-52 -354h106l-52 354h-2z" />
    <glyph glyph-name="B" unicode="B" horiz-adv-x="406" 
d="M206 700q85 0 124 -39.5t39 -121.5v-25q0 -107 -71 -140v-2q82 -32 82 -149v-57q0 -81 -42.5 -123.5t-124.5 -42.5h-173v700h166zM199 315h-49v-215h63q29 0 43 15.5t14 53.5v61q0 48 -16.5 66.5t-54.5 18.5zM203 600h-53v-185h43q33 0 49.5 17t16.5 57v39q0 72 -56 72z
" />
    <glyph glyph-name="C" unicode="C" horiz-adv-x="386" 
d="M255 261h104v-93q0 -85 -42 -130.5t-122 -45.5t-122 45.5t-42 130.5v364q0 85 42 130.5t122 45.5t122 -45.5t42 -130.5v-68h-104v75q0 69 -57 69t-57 -69v-378q0 -68 57 -68t57 68v100z" />
    <glyph glyph-name="D" unicode="D" horiz-adv-x="408" 
d="M40 0v700h174q164 0 164 -173v-354q0 -173 -164 -173h-174zM212 600h-62v-500h62q56 0 56 68v364q0 68 -56 68z" />
    <glyph glyph-name="E" unicode="E" horiz-adv-x="368" 
d="M150 600v-195h151v-100h-151v-205h190v-100h-300v700h300v-100h-190z" />
    <glyph glyph-name="F" unicode="F" horiz-adv-x="344" 
d="M150 600v-211h142v-100h-142v-289h-110v700h291v-100h-181z" />
    <glyph glyph-name="G" unicode="G" horiz-adv-x="390" 
d="M205 290v100h154v-222q0 -85 -42 -130.5t-122 -45.5t-122 45.5t-42 130.5v364q0 85 42 130.5t122 45.5t122 -45.5t42 -130.5v-68h-104v75q0 69 -57 69t-57 -69v-378q0 -68 57 -68t57 68v129h-50z" />
    <glyph glyph-name="H" unicode="H" horiz-adv-x="427" 
d="M150 300v-300h-110v700h110v-300h125v300h112v-700h-112v300h-125z" />
    <glyph glyph-name="I" unicode="I" horiz-adv-x="190" 
d="M40 0v700h110v-700h-110z" />
    <glyph glyph-name="J" unicode="J" horiz-adv-x="256" 
d="M10 0v100q12 -1 38 -1q63 0 63 67v534h110v-526q0 -176 -158 -176q-35 0 -53 2z" />
    <glyph glyph-name="K" unicode="K" horiz-adv-x="414" 
d="M291 0l-107 279l-34 -64v-215h-110v700h110v-303h2l142 303h110l-153 -312l153 -388h-113z" />
    <glyph glyph-name="L" unicode="L" horiz-adv-x="339" 
d="M40 0v700h110v-600h181v-100h-291z" />
    <glyph glyph-name="M" unicode="M" horiz-adv-x="541" 
d="M192 700l80 -497h2l74 497h153v-700h-104v502h-2l-74 -502h-104l-80 495h-2v-495h-96v700h153z" />
    <glyph glyph-name="N" unicode="N" horiz-adv-x="427" 
d="M275 0l-135 507h-2v-507h-99v700h138l111 -419h2v419h98v-700h-113z" />
    <glyph glyph-name="O" unicode="O" 
d="M141 539v-378q0 -69 57 -69t57 69v378q0 69 -57 69t-57 -69zM31 168v364q0 84 43 130t124 46t124 -46t43 -130v-364q0 -84 -43 -130t-124 -46t-124 46t-43 130z" />
    <glyph glyph-name="P" unicode="P" horiz-adv-x="377" 
d="M202 700q164 0 164 -173v-91q0 -173 -164 -173h-52v-263h-110v700h162zM202 600h-52v-237h52q27 0 40.5 15t13.5 51v105q0 36 -13.5 51t-40.5 15z" />
    <glyph glyph-name="Q" unicode="Q" 
d="M31 168v364q0 84 43 130t124 46t124 -46t43 -130v-364q0 -59 -21 -98q6 -15 31 -15h10v-98h-15q-71 0 -95 48q-36 -13 -77 -13q-81 0 -124 46t-43 130zM141 539v-378q0 -69 57 -69t57 69v378q0 69 -57 69t-57 -69z" />
    <glyph glyph-name="R" unicode="R" horiz-adv-x="402" 
d="M382 0h-112q-10 30 -10 86v110q0 48 -17 68.5t-55 20.5h-38v-285h-110v700h166q85 0 124 -39.5t39 -121.5v-55q0 -107 -72 -141v-2q73 -31 73 -148v-108q0 -57 12 -85zM203 600h-53v-215h43q33 0 49.5 17t16.5 57v69q0 72 -56 72z" />
    <glyph glyph-name="S" unicode="S" horiz-adv-x="374" 
d="M26 532q0 85 41 130.5t121 45.5t121 -45.5t41 -130.5v-22h-104v29q0 69 -55 69t-55 -69q0 -39 20.5 -72t73.5 -80q68 -60 94.5 -109t26.5 -110q0 -85 -42 -130.5t-122 -45.5t-122 45.5t-42 130.5v43h104v-50q0 -68 57 -68t57 68q0 39 -20.5 72t-73.5 80q-68 60 -94.5 109
t-26.5 110z" />
    <glyph glyph-name="T" unicode="T" horiz-adv-x="356" 
d="M8 600v100h340v-100h-115v-600h-110v600h-115z" />
    <glyph glyph-name="U" unicode="U" horiz-adv-x="398" 
d="M35 700h110v-540q0 -68 57 -68t57 68v540h104v-533q0 -85 -42 -130.5t-122 -45.5t-122 45.5t-42 130.5v533z" />
    <glyph glyph-name="V" unicode="V" horiz-adv-x="402" 
d="M122 700l83 -571h2l83 571h101l-108 -700h-164l-108 700h111z" />
    <glyph glyph-name="W" unicode="W" horiz-adv-x="563" 
d="M324 0l-39 373h-2l-39 -373h-151l-78 700h107l58 -552h2l52 552h106l54 -556h2l56 556h96l-78 -700h-146z" />
    <glyph glyph-name="X" unicode="X" horiz-adv-x="430" 
d="M305 700h102l-115 -340l123 -360h-116l-89 277h-2l-90 -277h-103l123 360l-115 340h114l82 -258h2z" />
    <glyph glyph-name="Y" unicode="Y" 
d="M143 0v232l-139 468h115l83 -319h2l83 319h105l-139 -468v-232h-110z" />
    <glyph glyph-name="Z" unicode="Z" horiz-adv-x="370" 
d="M33 700h312v-98l-209 -502h209v-100h-322v98l209 502h-199v100z" />
    <glyph glyph-name="bracketleft" unicode="[" horiz-adv-x="251" 
d="M47 0v700h182v-90h-72v-520h72v-90h-182z" />
    <glyph glyph-name="backslash" unicode="\" horiz-adv-x="381" 
d="M100 700l276 -700h-95l-276 700h95z" />
    <glyph glyph-name="bracketright" unicode="]" horiz-adv-x="251" 
d="M204 700v-700h-182v90h72v520h-72v90h182z" />
    <glyph glyph-name="asciicircum" unicode="^" 
d="M20 390l139 310h78l139 -310h-88l-90 210l-90 -210h-88z" />
    <glyph glyph-name="underscore" unicode="_" horiz-adv-x="500" 
d="M0 -90v80h500v-80h-500z" />
    <glyph glyph-name="grave" unicode="`" horiz-adv-x="250" 
d="M44 848h113l68 -111h-79z" />
    <glyph glyph-name="a" unicode="a" horiz-adv-x="407" 
d="M284 700l112 -700h-111l-19 127h-135l-19 -127h-101l112 700h161zM197 576l-52 -354h106l-52 354h-2z" />
    <glyph glyph-name="b" unicode="b" horiz-adv-x="406" 
d="M206 700q85 0 124 -39.5t39 -121.5v-25q0 -107 -71 -140v-2q82 -32 82 -149v-57q0 -81 -42.5 -123.5t-124.5 -42.5h-173v700h166zM199 315h-49v-215h63q29 0 43 15.5t14 53.5v61q0 48 -16.5 66.5t-54.5 18.5zM203 600h-53v-185h43q33 0 49.5 17t16.5 57v39q0 72 -56 72z
" />
    <glyph glyph-name="c" unicode="c" horiz-adv-x="386" 
d="M255 261h104v-93q0 -85 -42 -130.5t-122 -45.5t-122 45.5t-42 130.5v364q0 85 42 130.5t122 45.5t122 -45.5t42 -130.5v-68h-104v75q0 69 -57 69t-57 -69v-378q0 -68 57 -68t57 68v100z" />
    <glyph glyph-name="d" unicode="d" horiz-adv-x="408" 
d="M40 0v700h174q164 0 164 -173v-354q0 -173 -164 -173h-174zM212 600h-62v-500h62q56 0 56 68v364q0 68 -56 68z" />
    <glyph glyph-name="e" unicode="e" horiz-adv-x="368" 
d="M150 600v-195h151v-100h-151v-205h190v-100h-300v700h300v-100h-190z" />
    <glyph glyph-name="f" unicode="f" horiz-adv-x="344" 
d="M150 600v-211h142v-100h-142v-289h-110v700h291v-100h-181z" />
    <glyph glyph-name="g" unicode="g" horiz-adv-x="390" 
d="M205 290v100h154v-222q0 -85 -42 -130.5t-122 -45.5t-122 45.5t-42 130.5v364q0 85 42 130.5t122 45.5t122 -45.5t42 -130.5v-68h-104v75q0 69 -57 69t-57 -69v-378q0 -68 57 -68t57 68v129h-50z" />
    <glyph glyph-name="h" unicode="h" horiz-adv-x="427" 
d="M150 300v-300h-110v700h110v-300h125v300h112v-700h-112v300h-125z" />
    <glyph glyph-name="i" unicode="i" horiz-adv-x="190" 
d="M40 0v700h110v-700h-110z" />
    <glyph glyph-name="j" unicode="j" horiz-adv-x="256" 
d="M10 0v100q12 -1 38 -1q63 0 63 67v534h110v-526q0 -176 -158 -176q-35 0 -53 2z" />
    <glyph glyph-name="k" unicode="k" horiz-adv-x="414" 
d="M291 0l-107 279l-34 -64v-215h-110v700h110v-303h2l142 303h110l-153 -312l153 -388h-113z" />
    <glyph glyph-name="l" unicode="l" horiz-adv-x="339" 
d="M40 0v700h110v-600h181v-100h-291z" />
    <glyph glyph-name="m" unicode="m" horiz-adv-x="541" 
d="M192 700l80 -497h2l74 497h153v-700h-104v502h-2l-74 -502h-104l-80 495h-2v-495h-96v700h153z" />
    <glyph glyph-name="n" unicode="n" horiz-adv-x="427" 
d="M275 0l-135 507h-2v-507h-99v700h138l111 -419h2v419h98v-700h-113z" />
    <glyph glyph-name="o" unicode="o" 
d="M141 539v-378q0 -69 57 -69t57 69v378q0 69 -57 69t-57 -69zM31 168v364q0 84 43 130t124 46t124 -46t43 -130v-364q0 -84 -43 -130t-124 -46t-124 46t-43 130z" />
    <glyph glyph-name="p" unicode="p" horiz-adv-x="377" 
d="M202 700q164 0 164 -173v-91q0 -173 -164 -173h-52v-263h-110v700h162zM202 600h-52v-237h52q27 0 40.5 15t13.5 51v105q0 36 -13.5 51t-40.5 15z" />
    <glyph glyph-name="q" unicode="q" 
d="M31 168v364q0 84 43 130t124 46t124 -46t43 -130v-364q0 -59 -21 -98q6 -15 31 -15h10v-98h-15q-71 0 -95 48q-36 -13 -77 -13q-81 0 -124 46t-43 130zM141 539v-378q0 -69 57 -69t57 69v378q0 69 -57 69t-57 -69z" />
    <glyph glyph-name="r" unicode="r" horiz-adv-x="402" 
d="M382 0h-112q-10 30 -10 86v110q0 48 -17 68.5t-55 20.5h-38v-285h-110v700h166q85 0 124 -39.5t39 -121.5v-55q0 -107 -72 -141v-2q73 -31 73 -148v-108q0 -57 12 -85zM203 600h-53v-215h43q33 0 49.5 17t16.5 57v69q0 72 -56 72z" />
    <glyph glyph-name="s" unicode="s" horiz-adv-x="374" 
d="M26 532q0 85 41 130.5t121 45.5t121 -45.5t41 -130.5v-22h-104v29q0 69 -55 69t-55 -69q0 -39 20.5 -72t73.5 -80q68 -60 94.5 -109t26.5 -110q0 -85 -42 -130.5t-122 -45.5t-122 45.5t-42 130.5v43h104v-50q0 -68 57 -68t57 68q0 39 -20.5 72t-73.5 80q-68 60 -94.5 109
t-26.5 110z" />
    <glyph glyph-name="t" unicode="t" horiz-adv-x="356" 
d="M8 600v100h340v-100h-115v-600h-110v600h-115z" />
    <glyph glyph-name="u" unicode="u" horiz-adv-x="398" 
d="M35 700h110v-540q0 -68 57 -68t57 68v540h104v-533q0 -85 -42 -130.5t-122 -45.5t-122 45.5t-42 130.5v533z" />
    <glyph glyph-name="v" unicode="v" horiz-adv-x="402" 
d="M122 700l83 -571h2l83 571h101l-108 -700h-164l-108 700h111z" />
    <glyph glyph-name="w" unicode="w" horiz-adv-x="563" 
d="M324 0l-39 373h-2l-39 -373h-151l-78 700h107l58 -552h2l52 552h106l54 -556h2l56 556h96l-78 -700h-146z" />
    <glyph glyph-name="x" unicode="x" horiz-adv-x="430" 
d="M305 700h102l-115 -340l123 -360h-116l-89 277h-2l-90 -277h-103l123 360l-115 340h114l82 -258h2z" />
    <glyph glyph-name="y" unicode="y" 
d="M143 0v232l-139 468h115l83 -319h2l83 319h105l-139 -468v-232h-110z" />
    <glyph glyph-name="z" unicode="z" horiz-adv-x="370" 
d="M33 700h312v-98l-209 -502h209v-100h-322v98l209 502h-199v100z" />
    <glyph glyph-name="braceleft" unicode="{" horiz-adv-x="257" 
d="M102 350q61 -16 65 -89l5 -100q2 -40 14 -55.5t39 -15.5h16v-90h-56q-48 0 -77.5 28t-33.5 83l-8 134q-2 35 -13 47.5t-42 12.5v90q31 0 42 12.5t13 47.5l8 134q4 55 33.5 83t77.5 28h56v-90h-16q-27 0 -39 -15.5t-14 -55.5l-5 -100q-4 -73 -65 -89z" />
    <glyph glyph-name="bar" unicode="|" horiz-adv-x="500" 
d="M210 -65v830h90v-830h-90z" />
    <glyph glyph-name="braceright" unicode="}" horiz-adv-x="257" 
d="M155 350q-61 16 -65 89l-5 100q-2 40 -14 55.5t-39 15.5h-16v90h56q48 0 77.5 -28t33.5 -83l8 -134q2 -35 13 -47.5t42 -12.5v-90q-31 0 -42 -12.5t-13 -47.5l-8 -134q-4 -55 -33.5 -83t-77.5 -28h-56v90h16q27 0 39 15.5t14 55.5l5 100q4 73 65 89z" />
    <glyph glyph-name="asciitilde" unicode="~" 
d="M60 282l-52 50q33 49 60.5 69.5t58.5 20.5q30 0 80 -33q42 -28 63 -28q16 0 28 10.5t38 46.5l52 -54q-32 -47 -59 -66.5t-60 -19.5q-30 0 -80 33q-42 28 -63 28q-16 0 -29 -11.5t-37 -45.5z" />
    <glyph glyph-name="uni00A0" unicode="&#xa0;" horiz-adv-x="155" 
 />
    <glyph glyph-name="exclamdown" unicode="&#xa1;" horiz-adv-x="190" 
d="M54 545h82l14 -253v-292h-110v292zM148 594h-106v106h106v-106z" />
    <glyph glyph-name="cent" unicode="&#xa2;" 
d="M153 -15v52q-117 24 -117 171v284q0 145 117 171v52h90v-51q121 -24 121 -172v-48h-104v55q0 69 -57 69t-57 -69v-298q0 -68 57 -68t57 68v80h104v-73q0 -149 -121 -172v-51h-90z" />
    <glyph glyph-name="sterling" unicode="&#xa3;" 
d="M44 210v85h67q-6 20 -25 56q-46 93 -46 181q0 85 41 130.5t121 45.5t121 -45.5t41 -130.5v-69h-104v76q0 69 -55 69t-55 -69q0 -86 41 -173q19 -41 26 -71h121v-85h-114q-7 -71 -56 -110h189v-100h-327v96q40 0 67 30.5t28 83.5h-81z" />
    <glyph glyph-name="currency" unicode="&#xa4;" 
d="M134 350q0 -26 19 -45t45 -19t45 19t19 45t-19 45t-45 19t-45 -19t-19 -45zM32 227l55 55q-18 30 -18 68t18 67l-55 56l43 43l56 -56q30 19 67 19q35 0 67 -19l56 56l43 -43l-56 -56q19 -32 19 -67q0 -37 -19 -67l56 -56l-43 -43l-56 55q-29 -18 -67 -18t-68 18l-55 -55z
" />
    <glyph glyph-name="yen" unicode="&#xa5;" 
d="M284 700h105l-128 -429h83v-55h-91v-45h91v-55h-91v-116h-110v116h-91v55h91v45h-91v55h82l-127 429h115l80 -309h2z" />
    <glyph glyph-name="brokenbar" unicode="&#xa6;" horiz-adv-x="500" 
d="M210 410v355h90v-355h-90zM210 -65v355h90v-355h-90z" />
    <glyph glyph-name="section" unicode="&#xa7;" 
d="M35 314q0 82 69 121v2q-69 45 -69 129q0 63 42 102.5t120 39.5t120 -37t42 -99v-36h-104v21q0 27 -14.5 43.5t-40.5 16.5q-55 0 -55 -56q0 -20 16.5 -35.5t59.5 -32.5q75 -30 107 -71t32 -101q0 -82 -70 -122v-2q70 -43 70 -128q0 -63 -42 -102.5t-120 -39.5t-120 37
t-42 99v50h104v-35q0 -27 14.5 -43.5t40.5 -16.5q55 0 55 56q0 20 -16 35t-60 33q-75 31 -107 71.5t-32 100.5zM140 318q0 -47 61 -77q23 4 38.5 25.5t15.5 50.5q0 47 -62 76q-23 -4 -38 -25t-15 -50z" />
    <glyph glyph-name="dieresis" unicode="&#xa8;" horiz-adv-x="250" 
d="M1 833h96v-96h-96v96zM153 833h96v-96h-96v96z" />
    <glyph glyph-name="copyright" unicode="&#xa9;" horiz-adv-x="736" 
d="M405 308h72v-56q0 -122 -113 -122t-113 122v194q0 124 113 124t113 -124v-36h-72v42q0 48 -39 48t-39 -48v-204q0 -47 39 -47t39 47v60zM20 350q0 155 99.5 256.5t248.5 101.5t248.5 -101.5t99.5 -256.5t-99.5 -256.5t-248.5 -101.5t-248.5 101.5t-99.5 256.5zM92 350
q0 -125 78.5 -206.5t197.5 -81.5t197.5 81.5t78.5 206.5t-78.5 206.5t-197.5 81.5t-197.5 -81.5t-78.5 -206.5z" />
    <glyph glyph-name="ordfeminine" unicode="&#xaa;" horiz-adv-x="278" 
d="M30 433q0 67 37 95t105 30v46q0 37 -28 37q-34 0 -34 -43v-23h-66v19q0 111 103 111q95 0 95 -111v-261h-59l-3 48h-2q-17 -53 -70 -53q-78 0 -78 101v4zM30 287h212v-69h-212v69zM100 444v-9q0 -43 36 -43q33 0 36 36v78q-72 -3 -72 -62z" />
    <glyph glyph-name="guillemotleft" unicode="&#xab;" horiz-adv-x="355" 
d="M78 608h99l-61 -257l61 -273h-99l-62 273zM240 608h99l-61 -257l61 -273h-99l-62 273z" />
    <glyph glyph-name="logicalnot" unicode="&#xac;" 
d="M25 389h346v-215h-78v137h-268v78z" />
    <glyph glyph-name="uni00AD" unicode="&#xad;" horiz-adv-x="270" 
d="M35 300v100h200v-100h-200z" />
    <glyph glyph-name="registered" unicode="&#xae;" horiz-adv-x="736" 
d="M20 350q0 155 99.5 256.5t248.5 101.5t248.5 -101.5t99.5 -256.5t-99.5 -256.5t-248.5 -101.5t-248.5 101.5t-99.5 256.5zM92 350q0 -125 78.5 -206.5t197.5 -81.5t197.5 81.5t78.5 206.5t-78.5 206.5t-197.5 81.5t-197.5 -81.5t-78.5 -206.5zM496 136h-78q-7 18 -7 60
v46q0 34 -12 48t-39 14h-26v-168h-76v428h116q113 0 113 -112v-9q0 -75 -52 -98v-2q52 -21 52 -102v-46q0 -39 9 -59zM370 494h-36v-120h31q46 0 46 51v18q0 51 -41 51z" />
    <glyph glyph-name="macron" unicode="&#xaf;" horiz-adv-x="250" 
d="M10 819h230v-78h-230v78z" />
    <glyph glyph-name="degree" unicode="&#xb0;" horiz-adv-x="228" 
d="M15 609q0 41 29 70t70 29t70 -29t29 -70t-29 -70t-70 -29t-70 29t-29 70zM65 609q0 -20 14.5 -34.5t34.5 -14.5t34.5 14.5t14.5 34.5t-14.5 34.5t-34.5 14.5t-34.5 -14.5t-14.5 -34.5z" />
    <glyph glyph-name="plusminus" unicode="&#xb1;" 
d="M237 252h124v-78h-326v78h124v80h-124v78h124v114h78v-114h124v-78h-124v-80z" />
    <glyph glyph-name="twosuperior" unicode="&#xb2;" horiz-adv-x="280" 
d="M180 688q0 50 -36 50t-36 -44v-47h-66v43q0 111 104 111t104 -111q0 -45 -19 -85.5t-67 -91.5q-53 -57 -53 -89q0 -8 1 -10h132v-63h-202v54q0 38 15 69.5t54 72.5q38 40 53.5 72t15.5 69z" />
    <glyph glyph-name="threesuperior" unicode="&#xb3;" horiz-adv-x="280" 
d="M174 460v34q0 31 -10.5 43.5t-34.5 12.5h-24v63h27q42 0 42 48v25q0 51 -36 51t-36 -44v-28h-66v23q0 112 104 112t104 -112v-11q0 -70 -49 -90v-2q49 -21 49 -92v-35q0 -112 -104 -112t-104 112v36h66v-41q0 -44 36 -44t36 51z" />
    <glyph glyph-name="acute" unicode="&#xb4;" horiz-adv-x="250" 
d="M95 848h108l-102 -111h-74z" />
    <glyph glyph-name="uni00B5" unicode="&#xb5;" 
d="M141 500v-339q0 -69 57 -69t57 69v339h110v-500h-100v52q-31 -60 -100 -60q-10 0 -24 2v-87h-110v593h110z" />
    <glyph glyph-name="paragraph" unicode="&#xb6;" 
d="M356 700v-765h-80v685h-54v-685h-80v330q-61 0 -94.5 47t-33.5 124v91q0 173 164 173h178z" />
    <glyph glyph-name="periodcentered" unicode="&#xb7;" horiz-adv-x="186" 
d="M40 403h106v-106h-106v106z" />
    <glyph glyph-name="cedilla" unicode="&#xb8;" horiz-adv-x="250" 
d="M26 -89v10h74v-8q0 -20 22 -20q25 0 25 24q0 26 -36 26h-10v71h48v-53q38 0 56 -10.5t18 -36.5q0 -37 -25 -49t-76 -12q-96 0 -96 58z" />
    <glyph glyph-name="onesuperior" unicode="&#xb9;" horiz-adv-x="200" 
d="M25 690v49q36 0 51.5 14t26.5 42h46v-444h-70v339h-54z" />
    <glyph glyph-name="ordmasculine" unicode="&#xba;" horiz-adv-x="280" 
d="M104 598v-163q0 -43 36 -43t36 43v163q0 43 -36 43t-36 -43zM34 439v155q0 53 27.5 82t78.5 29t78.5 -29t27.5 -82v-155q0 -53 -27.5 -82t-78.5 -29t-78.5 29t-27.5 82zM34 287h212v-69h-212v69z" />
    <glyph glyph-name="guillemotright" unicode="&#xbb;" horiz-adv-x="355" 
d="M178 608h99l62 -257l-62 -273h-99l61 273zM16 608h99l62 -257l-62 -273h-99l61 273z" />
    <glyph glyph-name="onequarter" unicode="&#xbc;" horiz-adv-x="627" 
d="M65 595v49q36 0 51.5 14t26.5 42h46v-444h-70v339h-54zM160 0l276 700h65l-276 -700h-65zM371 80v64l127 300h76v-300h33v-64h-33v-80h-69v80h-134zM434 144h71v164h-2z" />
    <glyph glyph-name="onehalf" unicode="&#xbd;" horiz-adv-x="627" 
d="M65 595v49q36 0 51.5 14t26.5 42h46v-444h-70v339h-54zM130 0l276 700h65l-276 -700h-65zM527 337q0 50 -36 50t-36 -44v-47h-66v43q0 111 104 111t104 -111q0 -45 -19 -85.5t-67 -91.5q-53 -57 -53 -89q0 -8 1 -10h132v-63h-202v54q0 38 15 69.5t54 72.5q38 40 53.5 72
t15.5 69z" />
    <glyph glyph-name="threequarters" unicode="&#xbe;" horiz-adv-x="627" 
d="M174 365v34q0 31 -10.5 43.5t-34.5 12.5h-24v63h27q42 0 42 48v25q0 51 -36 51t-36 -44v-28h-66v23q0 112 104 112t104 -112v-11q0 -70 -49 -90v-2q49 -21 49 -92v-35q0 -112 -104 -112t-104 112v36h66v-41q0 -44 36 -44t36 51zM170 0l276 700h65l-276 -700h-65zM371 80
v64l127 300h76v-300h33v-64h-33v-80h-69v80h-134zM434 144h71v164h-2z" />
    <glyph glyph-name="questiondown" unicode="&#xbf;" horiz-adv-x="360" 
d="M142 545h98q6 -18 6 -43q0 -42 -12.5 -77.5t-44.5 -80.5q-36 -51 -49.5 -91.5t-13.5 -91.5q0 -69 55 -69t55 69v76h104v-69q0 -85 -41 -130.5t-121 -45.5t-121 45.5t-41 130.5q0 56 16.5 101.5t57.5 99.5q32 43 44 73t12 64q0 22 -4 39zM245 594h-106v106h106v-106z" />
    <glyph glyph-name="Agrave" unicode="&#xc0;" horiz-adv-x="407" 
d="M284 700l112 -700h-111l-19 127h-135l-19 -127h-101l112 700h161zM197 576l-52 -354h106l-52 354h-2zM83 848h113l68 -111h-79z" />
    <glyph glyph-name="Aacute" unicode="&#xc1;" horiz-adv-x="407" 
d="M284 700l112 -700h-111l-19 127h-135l-19 -127h-101l112 700h161zM197 576l-52 -354h106l-52 354h-2zM213 848h108l-102 -111h-74z" />
    <glyph glyph-name="Acircumflex" unicode="&#xc2;" horiz-adv-x="407" 
d="M284 700l112 -700h-111l-19 127h-135l-19 -127h-101l112 700h161zM197 576l-52 -354h106l-52 354h-2zM159 737h-94l89 111h99l89 -111h-94l-45 55z" />
    <glyph glyph-name="Atilde" unicode="&#xc3;" horiz-adv-x="407" 
d="M284 700l112 -700h-111l-19 127h-135l-19 -127h-101l112 700h161zM197 576l-52 -354h106l-52 354h-2zM243 813q29 0 43 29l53 -37q-26 -68 -85 -68q-24 0 -53 14q-22 11 -37 11q-29 0 -43 -29l-53 37q26 68 85 68q25 0 53 -14q22 -11 37 -11z" />
    <glyph glyph-name="Adieresis" unicode="&#xc4;" horiz-adv-x="407" 
d="M284 700l112 -700h-111l-19 127h-135l-19 -127h-101l112 700h161zM197 576l-52 -354h106l-52 354h-2zM79 833h96v-96h-96v96zM231 833h96v-96h-96v96z" />
    <glyph glyph-name="Aring" unicode="&#xc5;" horiz-adv-x="407" 
d="M284 700l112 -700h-111l-19 127h-135l-19 -127h-101l112 700h161zM197 576l-52 -354h106l-52 354h-2zM123 814q0 34 23 57t57 23t57 -23t23 -57t-23 -57t-57 -23t-57 23t-23 57zM173 814q0 -13 8.5 -21.5t21.5 -8.5t21.5 8.5t8.5 21.5t-8.5 21.5t-21.5 8.5t-21.5 -8.5
t-8.5 -21.5z" />
    <glyph glyph-name="AE" unicode="&#xc6;" horiz-adv-x="580" 
d="M252 0v127h-111l-32 -127h-105l187 700h361v-100h-190v-195h151v-100h-151v-205h190v-100h-300zM166 222h86v337h-2z" />
    <glyph glyph-name="Ccedilla" unicode="&#xc7;" horiz-adv-x="386" 
d="M255 261h104v-93q0 -78 -36.5 -123.5t-105.5 -51.5v-32q38 0 56 -10.5t18 -36.5q0 -37 -25 -49t-76 -12q-96 0 -96 58v10h74v-8q0 -20 22 -20q25 0 25 24q0 26 -36 26h-10v51q-138 14 -138 174v364q0 85 42 130.5t122 45.5t122 -45.5t42 -130.5v-68h-104v75q0 69 -57 69
t-57 -69v-378q0 -68 57 -68t57 68v100z" />
    <glyph glyph-name="Egrave" unicode="&#xc8;" horiz-adv-x="368" 
d="M150 600v-195h151v-100h-151v-205h190v-100h-300v700h300v-100h-190zM68 848h113l68 -111h-79z" />
    <glyph glyph-name="Eacute" unicode="&#xc9;" horiz-adv-x="368" 
d="M150 600v-195h151v-100h-151v-205h190v-100h-300v700h300v-100h-190zM199 848h108l-102 -111h-74z" />
    <glyph glyph-name="Ecircumflex" unicode="&#xca;" horiz-adv-x="368" 
d="M150 600v-195h151v-100h-151v-205h190v-100h-300v700h300v-100h-190zM144 737h-94l89 111h99l89 -111h-94l-45 55z" />
    <glyph glyph-name="Edieresis" unicode="&#xcb;" horiz-adv-x="368" 
d="M150 600v-195h151v-100h-151v-205h190v-100h-300v700h300v-100h-190zM65 833h96v-96h-96v96zM217 833h96v-96h-96v96z" />
    <glyph glyph-name="Igrave" unicode="&#xcc;" horiz-adv-x="190" 
d="M40 0v700h110v-700h-110zM-25 848h113l68 -111h-79z" />
    <glyph glyph-name="Iacute" unicode="&#xcd;" horiz-adv-x="190" 
d="M40 0v700h110v-700h-110zM105 848h108l-102 -111h-74z" />
    <glyph glyph-name="Icircumflex" unicode="&#xce;" horiz-adv-x="190" 
d="M40 0v700h110v-700h-110zM51 737h-94l89 111h99l89 -111h-94l-45 55z" />
    <glyph glyph-name="Idieresis" unicode="&#xcf;" horiz-adv-x="190" 
d="M40 0v700h110v-700h-110zM-29 833h96v-96h-96v96zM123 833h96v-96h-96v96z" />
    <glyph glyph-name="Eth" unicode="&#xd0;" horiz-adv-x="408" 
d="M40 0v305h-36v90h36v305h174q164 0 164 -173v-354q0 -173 -164 -173h-174zM212 600h-62v-205h68v-90h-68v-205h62q56 0 56 68v364q0 68 -56 68z" />
    <glyph glyph-name="Ntilde" unicode="&#xd1;" horiz-adv-x="427" 
d="M275 0l-135 507h-2v-507h-99v700h138l111 -419h2v419h98v-700h-113zM253 813q29 0 43 29l53 -37q-26 -68 -85 -68q-24 0 -53 14q-22 11 -37 11q-29 0 -43 -29l-53 37q26 68 85 68q25 0 53 -14q22 -11 37 -11z" />
    <glyph glyph-name="Ograve" unicode="&#xd2;" 
d="M141 539v-378q0 -69 57 -69t57 69v378q0 69 -57 69t-57 -69zM31 168v364q0 84 43 130t124 46t124 -46t43 -130v-364q0 -84 -43 -130t-124 -46t-124 46t-43 130zM77 848h113l68 -111h-79z" />
    <glyph glyph-name="Oacute" unicode="&#xd3;" 
d="M141 539v-378q0 -69 57 -69t57 69v378q0 69 -57 69t-57 -69zM31 168v364q0 84 43 130t124 46t124 -46t43 -130v-364q0 -84 -43 -130t-124 -46t-124 46t-43 130zM208 848h108l-102 -111h-74z" />
    <glyph glyph-name="Ocircumflex" unicode="&#xd4;" 
d="M141 539v-378q0 -69 57 -69t57 69v378q0 69 -57 69t-57 -69zM31 168v364q0 84 43 130t124 46t124 -46t43 -130v-364q0 -84 -43 -130t-124 -46t-124 46t-43 130zM153 737h-94l89 111h99l89 -111h-94l-45 55z" />
    <glyph glyph-name="Otilde" unicode="&#xd5;" 
d="M141 539v-378q0 -69 57 -69t57 69v378q0 69 -57 69t-57 -69zM31 168v364q0 84 43 130t124 46t124 -46t43 -130v-364q0 -84 -43 -130t-124 -46t-124 46t-43 130zM238 813q29 0 43 29l53 -37q-26 -68 -85 -68q-24 0 -53 14q-22 11 -37 11q-29 0 -43 -29l-53 37q26 68 85 68
q25 0 53 -14q22 -11 37 -11z" />
    <glyph glyph-name="Odieresis" unicode="&#xd6;" 
d="M141 539v-378q0 -69 57 -69t57 69v378q0 69 -57 69t-57 -69zM31 168v364q0 84 43 130t124 46t124 -46t43 -130v-364q0 -84 -43 -130t-124 -46t-124 46t-43 130zM74 833h96v-96h-96v96zM226 833h96v-96h-96v96z" />
    <glyph glyph-name="multiply" unicode="&#xd7;" 
d="M92 508l106 -105l106 106l53 -53l-106 -106l106 -106l-53 -53l-106 106l-107 -106l-53 53l106 106l-105 105z" />
    <glyph glyph-name="Oslash" unicode="&#xd8;" 
d="M31 168v364q0 84 43 130t124 46q60 0 100 -26l20 55l37 -13l-26 -71q36 -43 36 -121v-364q0 -84 -43 -130t-124 -46q-62 0 -100 25l-20 -54l-37 13l25 70q-35 46 -35 122zM253 443l-111 -303q8 -48 56 -48q57 0 57 69v282h-2zM141 539v-282h2l110 303q-7 48 -55 48
q-57 0 -57 -69z" />
    <glyph glyph-name="Ugrave" unicode="&#xd9;" horiz-adv-x="398" 
d="M35 700h110v-540q0 -68 57 -68t57 68v540h104v-533q0 -85 -42 -130.5t-122 -45.5t-122 45.5t-42 130.5v533zM79 848h113l68 -111h-79z" />
    <glyph glyph-name="Uacute" unicode="&#xda;" horiz-adv-x="398" 
d="M35 700h110v-540q0 -68 57 -68t57 68v540h104v-533q0 -85 -42 -130.5t-122 -45.5t-122 45.5t-42 130.5v533zM210 848h108l-102 -111h-74z" />
    <glyph glyph-name="Ucircumflex" unicode="&#xdb;" horiz-adv-x="398" 
d="M35 700h110v-540q0 -68 57 -68t57 68v540h104v-533q0 -85 -42 -130.5t-122 -45.5t-122 45.5t-42 130.5v533zM156 737h-94l89 111h99l89 -111h-94l-45 55z" />
    <glyph glyph-name="Udieresis" unicode="&#xdc;" horiz-adv-x="398" 
d="M35 700h110v-540q0 -68 57 -68t57 68v540h104v-533q0 -85 -42 -130.5t-122 -45.5t-122 45.5t-42 130.5v533zM77 833h96v-96h-96v96zM229 833h96v-96h-96v96z" />
    <glyph glyph-name="Yacute" unicode="&#xdd;" 
d="M143 0v232l-139 468h115l83 -319h2l83 319h105l-139 -468v-232h-110zM212 848h108l-102 -111h-74z" />
    <glyph glyph-name="Thorn" unicode="&#xde;" horiz-adv-x="377" 
d="M40 0v700h110v-80h52q164 0 164 -173v-91q0 -173 -164 -173h-52v-183h-110zM202 520h-52v-237h52q27 0 40.5 15t13.5 51v105q0 36 -13.5 51t-40.5 15z" />
    <glyph glyph-name="germandbls" unicode="&#xdf;" horiz-adv-x="748" 
d="M26 532q0 85 41 130.5t121 45.5t121 -45.5t41 -130.5v-22h-104v29q0 69 -55 69t-55 -69q0 -39 20.5 -72t73.5 -80q68 -60 94.5 -109t26.5 -110q0 -85 -42 -130.5t-122 -45.5t-122 45.5t-42 130.5v43h104v-50q0 -68 57 -68t57 68q0 39 -20.5 72t-73.5 80q-68 60 -94.5 109
t-26.5 110zM400 532q0 85 41 130.5t121 45.5t121 -45.5t41 -130.5v-22h-104v29q0 69 -55 69t-55 -69q0 -39 20.5 -72t73.5 -80q68 -60 94.5 -109t26.5 -110q0 -85 -42 -130.5t-122 -45.5t-122 45.5t-42 130.5v43h104v-50q0 -68 57 -68t57 68q0 39 -20.5 72t-73.5 80
q-68 60 -94.5 109t-26.5 110z" />
    <glyph glyph-name="agrave" unicode="&#xe0;" horiz-adv-x="407" 
d="M284 700l112 -700h-111l-19 127h-135l-19 -127h-101l112 700h161zM197 576l-52 -354h106l-52 354h-2zM83 848h113l68 -111h-79z" />
    <glyph glyph-name="aacute" unicode="&#xe1;" horiz-adv-x="407" 
d="M284 700l112 -700h-111l-19 127h-135l-19 -127h-101l112 700h161zM197 576l-52 -354h106l-52 354h-2zM213 848h108l-102 -111h-74z" />
    <glyph glyph-name="acircumflex" unicode="&#xe2;" horiz-adv-x="407" 
d="M284 700l112 -700h-111l-19 127h-135l-19 -127h-101l112 700h161zM197 576l-52 -354h106l-52 354h-2zM159 737h-94l89 111h99l89 -111h-94l-45 55z" />
    <glyph glyph-name="atilde" unicode="&#xe3;" horiz-adv-x="407" 
d="M284 700l112 -700h-111l-19 127h-135l-19 -127h-101l112 700h161zM197 576l-52 -354h106l-52 354h-2zM243 813q29 0 43 29l53 -37q-26 -68 -85 -68q-24 0 -53 14q-22 11 -37 11q-29 0 -43 -29l-53 37q26 68 85 68q25 0 53 -14q22 -11 37 -11z" />
    <glyph glyph-name="adieresis" unicode="&#xe4;" horiz-adv-x="407" 
d="M284 700l112 -700h-111l-19 127h-135l-19 -127h-101l112 700h161zM197 576l-52 -354h106l-52 354h-2zM79 833h96v-96h-96v96zM231 833h96v-96h-96v96z" />
    <glyph glyph-name="aring" unicode="&#xe5;" horiz-adv-x="407" 
d="M284 700l112 -700h-111l-19 127h-135l-19 -127h-101l112 700h161zM197 576l-52 -354h106l-52 354h-2zM123 814q0 34 23 57t57 23t57 -23t23 -57t-23 -57t-57 -23t-57 23t-23 57zM173 814q0 -13 8.5 -21.5t21.5 -8.5t21.5 8.5t8.5 21.5t-8.5 21.5t-21.5 8.5t-21.5 -8.5
t-8.5 -21.5z" />
    <glyph glyph-name="ae" unicode="&#xe6;" horiz-adv-x="580" 
d="M362 600v-195h151v-100h-151v-205h190v-100h-300v127h-111l-32 -127h-105l187 700h361v-100h-190zM166 222h86v337h-2z" />
    <glyph glyph-name="ccedilla" unicode="&#xe7;" horiz-adv-x="386" 
d="M255 261h104v-93q0 -78 -36.5 -123.5t-105.5 -51.5v-32q38 0 56 -10.5t18 -36.5q0 -37 -25 -49t-76 -12q-96 0 -96 58v10h74v-8q0 -20 22 -20q25 0 25 24q0 26 -36 26h-10v51q-138 14 -138 174v364q0 85 42 130.5t122 45.5t122 -45.5t42 -130.5v-68h-104v75q0 69 -57 69
t-57 -69v-378q0 -68 57 -68t57 68v100z" />
    <glyph glyph-name="egrave" unicode="&#xe8;" horiz-adv-x="368" 
d="M150 600v-195h151v-100h-151v-205h190v-100h-300v700h300v-100h-190zM68 848h113l68 -111h-79z" />
    <glyph glyph-name="eacute" unicode="&#xe9;" horiz-adv-x="368" 
d="M150 600v-195h151v-100h-151v-205h190v-100h-300v700h300v-100h-190zM199 848h108l-102 -111h-74z" />
    <glyph glyph-name="ecircumflex" unicode="&#xea;" horiz-adv-x="368" 
d="M150 600v-195h151v-100h-151v-205h190v-100h-300v700h300v-100h-190zM144 737h-94l89 111h99l89 -111h-94l-45 55z" />
    <glyph glyph-name="edieresis" unicode="&#xeb;" horiz-adv-x="368" 
d="M150 600v-195h151v-100h-151v-205h190v-100h-300v700h300v-100h-190zM65 833h96v-96h-96v96zM217 833h96v-96h-96v96z" />
    <glyph glyph-name="igrave" unicode="&#xec;" horiz-adv-x="190" 
d="M40 0v700h110v-700h-110zM-25 848h113l68 -111h-79z" />
    <glyph glyph-name="iacute" unicode="&#xed;" horiz-adv-x="190" 
d="M40 0v700h110v-700h-110zM105 848h108l-102 -111h-74z" />
    <glyph glyph-name="icircumflex" unicode="&#xee;" horiz-adv-x="190" 
d="M40 0v700h110v-700h-110zM51 737h-94l89 111h99l89 -111h-94l-45 55z" />
    <glyph glyph-name="idieresis" unicode="&#xef;" horiz-adv-x="190" 
d="M40 0v700h110v-700h-110zM-29 833h96v-96h-96v96zM123 833h96v-96h-96v96z" />
    <glyph glyph-name="eth" unicode="&#xf0;" horiz-adv-x="408" 
d="M40 0v305h-36v90h36v305h174q164 0 164 -173v-354q0 -173 -164 -173h-174zM212 600h-62v-205h68v-90h-68v-205h62q56 0 56 68v364q0 68 -56 68z" />
    <glyph glyph-name="ntilde" unicode="&#xf1;" horiz-adv-x="427" 
d="M275 0l-135 507h-2v-507h-99v700h138l111 -419h2v419h98v-700h-113zM253 813q29 0 43 29l53 -37q-26 -68 -85 -68q-24 0 -53 14q-22 11 -37 11q-29 0 -43 -29l-53 37q26 68 85 68q25 0 53 -14q22 -11 37 -11z" />
    <glyph glyph-name="ograve" unicode="&#xf2;" 
d="M141 539v-378q0 -69 57 -69t57 69v378q0 69 -57 69t-57 -69zM31 168v364q0 84 43 130t124 46t124 -46t43 -130v-364q0 -84 -43 -130t-124 -46t-124 46t-43 130zM77 848h113l68 -111h-79z" />
    <glyph glyph-name="oacute" unicode="&#xf3;" 
d="M141 539v-378q0 -69 57 -69t57 69v378q0 69 -57 69t-57 -69zM31 168v364q0 84 43 130t124 46t124 -46t43 -130v-364q0 -84 -43 -130t-124 -46t-124 46t-43 130zM208 848h108l-102 -111h-74z" />
    <glyph glyph-name="ocircumflex" unicode="&#xf4;" 
d="M141 539v-378q0 -69 57 -69t57 69v378q0 69 -57 69t-57 -69zM31 168v364q0 84 43 130t124 46t124 -46t43 -130v-364q0 -84 -43 -130t-124 -46t-124 46t-43 130zM153 737h-94l89 111h99l89 -111h-94l-45 55z" />
    <glyph glyph-name="otilde" unicode="&#xf5;" 
d="M141 539v-378q0 -69 57 -69t57 69v378q0 69 -57 69t-57 -69zM31 168v364q0 84 43 130t124 46t124 -46t43 -130v-364q0 -84 -43 -130t-124 -46t-124 46t-43 130zM238 813q29 0 43 29l53 -37q-26 -68 -85 -68q-24 0 -53 14q-22 11 -37 11q-29 0 -43 -29l-53 37q26 68 85 68
q25 0 53 -14q22 -11 37 -11z" />
    <glyph glyph-name="odieresis" unicode="&#xf6;" 
d="M141 539v-378q0 -69 57 -69t57 69v378q0 69 -57 69t-57 -69zM31 168v364q0 84 43 130t124 46t124 -46t43 -130v-364q0 -84 -43 -130t-124 -46t-124 46t-43 130zM74 833h96v-96h-96v96zM226 833h96v-96h-96v96z" />
    <glyph glyph-name="divide" unicode="&#xf7;" 
d="M145 250h106v-106h-106v106zM145 555h106v-106h-106v106zM25 389h346v-78h-346v78z" />
    <glyph glyph-name="oslash" unicode="&#xf8;" 
d="M31 168v364q0 84 43 130t124 46q60 0 100 -26l20 55l37 -13l-26 -71q36 -43 36 -121v-364q0 -84 -43 -130t-124 -46q-62 0 -100 25l-20 -54l-37 13l25 70q-35 46 -35 122zM253 443l-111 -303q8 -48 56 -48q57 0 57 69v282h-2zM141 539v-282h2l110 303q-7 48 -55 48
q-57 0 -57 -69z" />
    <glyph glyph-name="ugrave" unicode="&#xf9;" horiz-adv-x="398" 
d="M35 700h110v-540q0 -68 57 -68t57 68v540h104v-533q0 -85 -42 -130.5t-122 -45.5t-122 45.5t-42 130.5v533zM79 848h113l68 -111h-79z" />
    <glyph glyph-name="uacute" unicode="&#xfa;" horiz-adv-x="398" 
d="M35 700h110v-540q0 -68 57 -68t57 68v540h104v-533q0 -85 -42 -130.5t-122 -45.5t-122 45.5t-42 130.5v533zM210 848h108l-102 -111h-74z" />
    <glyph glyph-name="ucircumflex" unicode="&#xfb;" horiz-adv-x="398" 
d="M35 700h110v-540q0 -68 57 -68t57 68v540h104v-533q0 -85 -42 -130.5t-122 -45.5t-122 45.5t-42 130.5v533zM156 737h-94l89 111h99l89 -111h-94l-45 55z" />
    <glyph glyph-name="udieresis" unicode="&#xfc;" horiz-adv-x="398" 
d="M35 700h110v-540q0 -68 57 -68t57 68v540h104v-533q0 -85 -42 -130.5t-122 -45.5t-122 45.5t-42 130.5v533zM77 833h96v-96h-96v96zM229 833h96v-96h-96v96z" />
    <glyph glyph-name="yacute" unicode="&#xfd;" 
d="M143 0v232l-139 468h115l83 -319h2l83 319h105l-139 -468v-232h-110zM212 848h108l-102 -111h-74z" />
    <glyph glyph-name="thorn" unicode="&#xfe;" horiz-adv-x="377" 
d="M40 0v700h110v-80h52q164 0 164 -173v-91q0 -173 -164 -173h-52v-183h-110zM202 520h-52v-237h52q27 0 40.5 15t13.5 51v105q0 36 -13.5 51t-40.5 15z" />
    <glyph glyph-name="ydieresis" unicode="&#xff;" 
d="M143 0v232l-139 468h115l83 -319h2l83 319h105l-139 -468v-232h-110zM78 833h96v-96h-96v96zM230 833h96v-96h-96v96z" />
    <glyph glyph-name="Amacron" unicode="&#x100;" horiz-adv-x="407" 
d="M284 700l112 -700h-111l-19 127h-135l-19 -127h-101l112 700h161zM197 576l-52 -354h106l-52 354h-2zM88 819h230v-78h-230v78z" />
    <glyph glyph-name="amacron" unicode="&#x101;" horiz-adv-x="407" 
d="M284 700l112 -700h-111l-19 127h-135l-19 -127h-101l112 700h161zM197 576l-52 -354h106l-52 354h-2zM88 819h230v-78h-230v78z" />
    <glyph glyph-name="Abreve" unicode="&#x102;" horiz-adv-x="407" 
d="M284 700l112 -700h-111l-19 127h-135l-19 -127h-101l112 700h161zM197 576l-52 -354h106l-52 354h-2zM250 848h65q0 -54 -29 -84.5t-84 -30.5t-82.5 30.5t-28.5 84.5h65q2 -27 13 -37t33 -10q23 0 34.5 10t13.5 37z" />
    <glyph glyph-name="abreve" unicode="&#x103;" horiz-adv-x="407" 
d="M284 700l112 -700h-111l-19 127h-135l-19 -127h-101l112 700h161zM197 576l-52 -354h106l-52 354h-2zM250 848h65q0 -54 -29 -84.5t-84 -30.5t-82.5 30.5t-28.5 84.5h65q2 -27 13 -37t33 -10q23 0 34.5 10t13.5 37z" />
    <glyph glyph-name="Aogonek" unicode="&#x104;" horiz-adv-x="407" 
d="M284 700l112 -700h-41q-30 -25 -30 -58q0 -13 10 -20.5t25 -7.5q14 0 36 6v-56q-28 -11 -68 -11q-41 0 -64 16t-23 46q0 42 47 73l-22 139h-135l-19 -127h-101l112 700h161zM197 576l-52 -354h106l-52 354h-2z" />
    <glyph glyph-name="aogonek" unicode="&#x105;" horiz-adv-x="407" 
d="M284 700l112 -700h-41q-30 -25 -30 -58q0 -13 10 -20.5t25 -7.5q14 0 36 6v-56q-28 -11 -68 -11q-41 0 -64 16t-23 46q0 42 47 73l-22 139h-135l-19 -127h-101l112 700h161zM197 576l-52 -354h106l-52 354h-2z" />
    <glyph glyph-name="Cacute" unicode="&#x106;" horiz-adv-x="386" 
d="M255 261h104v-93q0 -85 -42 -130.5t-122 -45.5t-122 45.5t-42 130.5v364q0 85 42 130.5t122 45.5t122 -45.5t42 -130.5v-68h-104v75q0 69 -57 69t-57 -69v-378q0 -68 57 -68t57 68v100zM205 848h108l-102 -111h-74z" />
    <glyph glyph-name="cacute" unicode="&#x107;" horiz-adv-x="386" 
d="M255 261h104v-93q0 -85 -42 -130.5t-122 -45.5t-122 45.5t-42 130.5v364q0 85 42 130.5t122 45.5t122 -45.5t42 -130.5v-68h-104v75q0 69 -57 69t-57 -69v-378q0 -68 57 -68t57 68v100zM205 848h108l-102 -111h-74z" />
    <glyph glyph-name="Ccircumflex" unicode="&#x108;" horiz-adv-x="386" 
d="M255 261h104v-93q0 -85 -42 -130.5t-122 -45.5t-122 45.5t-42 130.5v364q0 85 42 130.5t122 45.5t122 -45.5t42 -130.5v-68h-104v75q0 69 -57 69t-57 -69v-378q0 -68 57 -68t57 68v100zM150 737h-94l89 111h99l89 -111h-94l-45 55z" />
    <glyph glyph-name="ccircumflex" unicode="&#x109;" horiz-adv-x="386" 
d="M255 261h104v-93q0 -85 -42 -130.5t-122 -45.5t-122 45.5t-42 130.5v364q0 85 42 130.5t122 45.5t122 -45.5t42 -130.5v-68h-104v75q0 69 -57 69t-57 -69v-378q0 -68 57 -68t57 68v100zM150 737h-94l89 111h99l89 -111h-94l-45 55z" />
    <glyph glyph-name="Cdotaccent" unicode="&#x10a;" horiz-adv-x="386" 
d="M255 261h104v-93q0 -85 -42 -130.5t-122 -45.5t-122 45.5t-42 130.5v364q0 85 42 130.5t122 45.5t122 -45.5t42 -130.5v-68h-104v75q0 69 -57 69t-57 -69v-378q0 -68 57 -68t57 68v100zM147 833h96v-96h-96v96z" />
    <glyph glyph-name="cdotaccent" unicode="&#x10b;" horiz-adv-x="386" 
d="M255 261h104v-93q0 -85 -42 -130.5t-122 -45.5t-122 45.5t-42 130.5v364q0 85 42 130.5t122 45.5t122 -45.5t42 -130.5v-68h-104v75q0 69 -57 69t-57 -69v-378q0 -68 57 -68t57 68v100zM147 833h96v-96h-96v96z" />
    <glyph glyph-name="Ccaron" unicode="&#x10c;" horiz-adv-x="386" 
d="M255 261h104v-93q0 -85 -42 -130.5t-122 -45.5t-122 45.5t-42 130.5v364q0 85 42 130.5t122 45.5t122 -45.5t42 -130.5v-68h-104v75q0 69 -57 69t-57 -69v-378q0 -68 57 -68t57 68v100zM56 848h94l44 -56l45 56h94l-89 -111h-99z" />
    <glyph glyph-name="ccaron" unicode="&#x10d;" horiz-adv-x="386" 
d="M255 261h104v-93q0 -85 -42 -130.5t-122 -45.5t-122 45.5t-42 130.5v364q0 85 42 130.5t122 45.5t122 -45.5t42 -130.5v-68h-104v75q0 69 -57 69t-57 -69v-378q0 -68 57 -68t57 68v100zM56 848h94l44 -56l45 56h94l-89 -111h-99z" />
    <glyph glyph-name="Dcaron" unicode="&#x10e;" horiz-adv-x="408" 
d="M40 0v700h174q164 0 164 -173v-354q0 -173 -164 -173h-174zM212 600h-62v-500h62q56 0 56 68v364q0 68 -56 68zM56 848h94l44 -56l45 56h94l-89 -111h-99z" />
    <glyph glyph-name="dcaron" unicode="&#x10f;" horiz-adv-x="408" 
d="M40 0v700h174q164 0 164 -173v-354q0 -173 -164 -173h-174zM212 600h-62v-500h62q56 0 56 68v364q0 68 -56 68zM56 848h94l44 -56l45 56h94l-89 -111h-99z" />
    <glyph glyph-name="Dcroat" unicode="&#x110;" horiz-adv-x="408" 
d="M40 0v305h-36v90h36v305h174q164 0 164 -173v-354q0 -173 -164 -173h-174zM212 600h-62v-205h68v-90h-68v-205h62q56 0 56 68v364q0 68 -56 68z" />
    <glyph glyph-name="dcroat" unicode="&#x111;" horiz-adv-x="408" 
d="M40 0v305h-36v90h36v305h174q164 0 164 -173v-354q0 -173 -164 -173h-174zM212 600h-62v-205h68v-90h-68v-205h62q56 0 56 68v364q0 68 -56 68z" />
    <glyph glyph-name="Emacron" unicode="&#x112;" horiz-adv-x="368" 
d="M150 600v-195h151v-100h-151v-205h190v-100h-300v700h300v-100h-190zM73 819h230v-78h-230v78z" />
    <glyph glyph-name="emacron" unicode="&#x113;" horiz-adv-x="368" 
d="M150 600v-195h151v-100h-151v-205h190v-100h-300v700h300v-100h-190zM73 819h230v-78h-230v78z" />
    <glyph glyph-name="Ebreve" unicode="&#x114;" horiz-adv-x="368" 
d="M150 600v-195h151v-100h-151v-205h190v-100h-300v700h300v-100h-190zM235 848h65q0 -54 -29 -84.5t-84 -30.5t-82.5 30.5t-28.5 84.5h65q2 -27 13 -37t33 -10q23 0 34.5 10t13.5 37z" />
    <glyph glyph-name="ebreve" unicode="&#x115;" horiz-adv-x="368" 
d="M150 600v-195h151v-100h-151v-205h190v-100h-300v700h300v-100h-190zM235 848h65q0 -54 -29 -84.5t-84 -30.5t-82.5 30.5t-28.5 84.5h65q2 -27 13 -37t33 -10q23 0 34.5 10t13.5 37z" />
    <glyph glyph-name="Edotaccent" unicode="&#x116;" horiz-adv-x="368" 
d="M150 600v-195h151v-100h-151v-205h190v-100h-300v700h300v-100h-190zM140 833h96v-96h-96v96z" />
    <glyph glyph-name="edotaccent" unicode="&#x117;" horiz-adv-x="368" 
d="M150 600v-195h151v-100h-151v-205h190v-100h-300v700h300v-100h-190zM140 833h96v-96h-96v96z" />
    <glyph glyph-name="Eogonek" unicode="&#x118;" horiz-adv-x="368" 
d="M150 600v-195h151v-100h-151v-205h190v-100h-41q-30 -25 -30 -58q0 -13 10 -20.5t25 -7.5q14 0 36 6v-56q-28 -11 -68 -11q-41 0 -64 16t-23 46q0 50 65 83v2h-210v700h300v-100h-190z" />
    <glyph glyph-name="eogonek" unicode="&#x119;" horiz-adv-x="368" 
d="M150 600v-195h151v-100h-151v-205h190v-100h-41q-30 -25 -30 -58q0 -13 10 -20.5t25 -7.5q14 0 36 6v-56q-28 -11 -68 -11q-41 0 -64 16t-23 46q0 50 65 83v2h-210v700h300v-100h-190z" />
    <glyph glyph-name="Ecaron" unicode="&#x11a;" horiz-adv-x="368" 
d="M150 600v-195h151v-100h-151v-205h190v-100h-300v700h300v-100h-190zM49 848h94l44 -56l45 56h94l-89 -111h-99z" />
    <glyph glyph-name="ecaron" unicode="&#x11b;" horiz-adv-x="368" 
d="M150 600v-195h151v-100h-151v-205h190v-100h-300v700h300v-100h-190zM49 848h94l44 -56l45 56h94l-89 -111h-99z" />
    <glyph glyph-name="Gcircumflex" unicode="&#x11c;" horiz-adv-x="390" 
d="M205 290v100h154v-222q0 -85 -42 -130.5t-122 -45.5t-122 45.5t-42 130.5v364q0 85 42 130.5t122 45.5t122 -45.5t42 -130.5v-68h-104v75q0 69 -57 69t-57 -69v-378q0 -68 57 -68t57 68v129h-50zM150 737h-94l89 111h99l89 -111h-94l-45 55z" />
    <glyph glyph-name="gcircumflex" unicode="&#x11d;" horiz-adv-x="390" 
d="M205 290v100h154v-222q0 -85 -42 -130.5t-122 -45.5t-122 45.5t-42 130.5v364q0 85 42 130.5t122 45.5t122 -45.5t42 -130.5v-68h-104v75q0 69 -57 69t-57 -69v-378q0 -68 57 -68t57 68v129h-50zM150 737h-94l89 111h99l89 -111h-94l-45 55z" />
    <glyph glyph-name="Gbreve" unicode="&#x11e;" horiz-adv-x="390" 
d="M205 290v100h154v-222q0 -85 -42 -130.5t-122 -45.5t-122 45.5t-42 130.5v364q0 85 42 130.5t122 45.5t122 -45.5t42 -130.5v-68h-104v75q0 69 -57 69t-57 -69v-378q0 -68 57 -68t57 68v129h-50zM241 848h65q0 -54 -29 -84.5t-84 -30.5t-82.5 30.5t-28.5 84.5h65
q2 -27 13 -37t33 -10q23 0 34.5 10t13.5 37z" />
    <glyph glyph-name="gbreve" unicode="&#x11f;" horiz-adv-x="390" 
d="M205 290v100h154v-222q0 -85 -42 -130.5t-122 -45.5t-122 45.5t-42 130.5v364q0 85 42 130.5t122 45.5t122 -45.5t42 -130.5v-68h-104v75q0 69 -57 69t-57 -69v-378q0 -68 57 -68t57 68v129h-50zM241 848h65q0 -54 -29 -84.5t-84 -30.5t-82.5 30.5t-28.5 84.5h65
q2 -27 13 -37t33 -10q23 0 34.5 10t13.5 37z" />
    <glyph glyph-name="Gdotaccent" unicode="&#x120;" horiz-adv-x="390" 
d="M205 290v100h154v-222q0 -85 -42 -130.5t-122 -45.5t-122 45.5t-42 130.5v364q0 85 42 130.5t122 45.5t122 -45.5t42 -130.5v-68h-104v75q0 69 -57 69t-57 -69v-378q0 -68 57 -68t57 68v129h-50zM146 833h96v-96h-96v96z" />
    <glyph glyph-name="gdotaccent" unicode="&#x121;" horiz-adv-x="390" 
d="M205 290v100h154v-222q0 -85 -42 -130.5t-122 -45.5t-122 45.5t-42 130.5v364q0 85 42 130.5t122 45.5t122 -45.5t42 -130.5v-68h-104v75q0 69 -57 69t-57 -69v-378q0 -68 57 -68t57 68v129h-50zM146 833h96v-96h-96v96z" />
    <glyph glyph-name="uni0122" unicode="&#x122;" horiz-adv-x="390" 
d="M205 290v100h154v-222q0 -85 -42 -130.5t-122 -45.5t-122 45.5t-42 130.5v364q0 85 42 130.5t122 45.5t122 -45.5t42 -130.5v-68h-104v75q0 69 -57 69t-57 -69v-378q0 -68 57 -68t57 68v129h-50zM185 -125h-36v92h92v-82l-43 -64h-39z" />
    <glyph glyph-name="uni0123" unicode="&#x123;" horiz-adv-x="390" 
d="M205 290v100h154v-222q0 -85 -42 -130.5t-122 -45.5t-122 45.5t-42 130.5v364q0 85 42 130.5t122 45.5t122 -45.5t42 -130.5v-68h-104v75q0 69 -57 69t-57 -69v-378q0 -68 57 -68t57 68v129h-50zM185 -125h-36v92h92v-82l-43 -64h-39z" />
    <glyph glyph-name="Hcircumflex" unicode="&#x124;" horiz-adv-x="427" 
d="M150 300v-300h-110v700h110v-300h125v300h112v-700h-112v300h-125zM169 737h-94l89 111h99l89 -111h-94l-45 55z" />
    <glyph glyph-name="hcircumflex" unicode="&#x125;" horiz-adv-x="427" 
d="M150 300v-300h-110v700h110v-300h125v300h112v-700h-112v300h-125zM169 737h-94l89 111h99l89 -111h-94l-45 55z" />
    <glyph glyph-name="Hbar" unicode="&#x126;" horiz-adv-x="437" 
d="M155 300v-300h-110v502h-35v82h35v116h110v-116h125v116h112v-116h35v-82h-35v-502h-112v300h-125zM155 400h125v102h-125v-102z" />
    <glyph glyph-name="hbar" unicode="&#x127;" horiz-adv-x="437" 
d="M155 300v-300h-110v502h-35v82h35v116h110v-116h125v116h112v-116h35v-82h-35v-502h-112v300h-125zM155 400h125v102h-125v-102z" />
    <glyph glyph-name="Itilde" unicode="&#x128;" horiz-adv-x="190" 
d="M40 0v700h110v-700h-110zM135 813q29 0 43 29l53 -37q-26 -68 -85 -68q-24 0 -53 14q-22 11 -37 11q-29 0 -43 -29l-53 37q26 68 85 68q25 0 53 -14q22 -11 37 -11z" />
    <glyph glyph-name="itilde" unicode="&#x129;" horiz-adv-x="190" 
d="M40 0v700h110v-700h-110zM135 813q29 0 43 29l53 -37q-26 -68 -85 -68q-24 0 -53 14q-22 11 -37 11q-29 0 -43 -29l-53 37q26 68 85 68q25 0 53 -14q22 -11 37 -11z" />
    <glyph glyph-name="Imacron" unicode="&#x12a;" horiz-adv-x="190" 
d="M40 0v700h110v-700h-110zM-20 819h230v-78h-230v78z" />
    <glyph glyph-name="imacron" unicode="&#x12b;" horiz-adv-x="190" 
d="M40 0v700h110v-700h-110zM-20 819h230v-78h-230v78z" />
    <glyph glyph-name="Ibreve" unicode="&#x12c;" horiz-adv-x="190" 
d="M40 0v700h110v-700h-110zM142 848h65q0 -54 -29 -84.5t-84 -30.5t-82.5 30.5t-28.5 84.5h65q2 -27 13 -37t33 -10q23 0 34.5 10t13.5 37z" />
    <glyph glyph-name="ibreve" unicode="&#x12d;" horiz-adv-x="190" 
d="M40 0v700h110v-700h-110zM142 848h65q0 -54 -29 -84.5t-84 -30.5t-82.5 30.5t-28.5 84.5h65q2 -27 13 -37t33 -10q23 0 34.5 10t13.5 37z" />
    <glyph glyph-name="Iogonek" unicode="&#x12e;" horiz-adv-x="190" 
d="M40 0v700h110v-700h-20q-30 -25 -30 -58q0 -13 10 -20.5t25 -7.5q14 0 36 6v-56q-28 -11 -68 -11q-41 0 -64 16t-23 46q0 50 65 83v2h-41z" />
    <glyph glyph-name="iogonek" unicode="&#x12f;" horiz-adv-x="190" 
d="M40 0v700h110v-700h-20q-30 -25 -30 -58q0 -13 10 -20.5t25 -7.5q14 0 36 6v-56q-28 -11 -68 -11q-41 0 -64 16t-23 46q0 50 65 83v2h-41z" />
    <glyph glyph-name="Idotaccent" unicode="&#x130;" horiz-adv-x="190" 
d="M40 0v700h110v-700h-110zM47 833h96v-96h-96v96z" />
    <glyph glyph-name="dotlessi" unicode="&#x131;" horiz-adv-x="190" 
d="M40 0v700h110v-700h-110z" />
    <glyph glyph-name="IJ" unicode="&#x132;" horiz-adv-x="446" 
d="M40 0v700h110v-700h-110zM200 0v100q12 -1 38 -1q63 0 63 67v534h110v-526q0 -176 -158 -176q-35 0 -53 2z" />
    <glyph glyph-name="ij" unicode="&#x133;" horiz-adv-x="446" 
d="M40 0v700h110v-700h-110zM200 0v100q12 -1 38 -1q63 0 63 67v534h110v-526q0 -176 -158 -176q-35 0 -53 2z" />
    <glyph glyph-name="Jcircumflex" unicode="&#x134;" horiz-adv-x="256" 
d="M10 0v100q12 -1 38 -1q63 0 63 67v534h110v-526q0 -176 -158 -176q-35 0 -53 2zM103 737h-94l89 111h99l89 -111h-94l-45 55z" />
    <glyph glyph-name="jcircumflex" unicode="&#x135;" horiz-adv-x="256" 
d="M10 0v100q12 -1 38 -1q63 0 63 67v534h110v-526q0 -176 -158 -176q-35 0 -53 2zM103 737h-94l89 111h99l89 -111h-94l-45 55z" />
    <glyph glyph-name="uni0136" unicode="&#x136;" horiz-adv-x="414" 
d="M291 0l-107 279l-34 -64v-215h-110v700h110v-303h2l142 303h110l-153 -312l153 -388h-113zM205 -125h-36v92h92v-82l-43 -64h-39z" />
    <glyph glyph-name="uni0137" unicode="&#x137;" horiz-adv-x="414" 
d="M291 0l-107 279l-34 -64v-215h-110v700h110v-303h2l142 303h110l-153 -312l153 -388h-113zM205 -125h-36v92h92v-82l-43 -64h-39z" />
    <glyph glyph-name="kgreenlandic" unicode="&#x138;" horiz-adv-x="414" 
d="M291 0l-107 279l-34 -64v-215h-110v700h110v-303h2l142 303h110l-153 -312l153 -388h-113z" />
    <glyph glyph-name="Lacute" unicode="&#x139;" horiz-adv-x="339" 
d="M40 0v700h110v-600h181v-100h-291zM140 848h108l-102 -111h-74z" />
    <glyph glyph-name="lacute" unicode="&#x13a;" horiz-adv-x="339" 
d="M40 0v700h110v-600h181v-100h-291zM140 848h108l-102 -111h-74z" />
    <glyph glyph-name="uni013B" unicode="&#x13b;" horiz-adv-x="339" 
d="M40 0v700h110v-600h181v-100h-291zM176 -125h-36v92h92v-82l-43 -64h-39z" />
    <glyph glyph-name="uni013C" unicode="&#x13c;" horiz-adv-x="339" 
d="M40 0v700h110v-600h181v-100h-291zM176 -125h-36v92h92v-82l-43 -64h-39z" />
    <glyph glyph-name="Lcaron" unicode="&#x13d;" horiz-adv-x="339" 
d="M40 0v700h110v-600h181v-100h-291zM253 594h-42v106h106v-95l-48 -111h-45z" />
    <glyph glyph-name="lcaron" unicode="&#x13e;" horiz-adv-x="339" 
d="M40 0v700h110v-600h181v-100h-291zM253 594h-42v106h106v-95l-48 -111h-45z" />
    <glyph glyph-name="Ldot" unicode="&#x13f;" horiz-adv-x="339" 
d="M40 0v700h110v-600h181v-100h-291zM210 403h106v-106h-106v106z" />
    <glyph glyph-name="ldot" unicode="&#x140;" horiz-adv-x="339" 
d="M40 0v700h110v-600h181v-100h-291zM210 403h106v-106h-106v106z" />
    <glyph glyph-name="Lslash" unicode="&#x141;" horiz-adv-x="348" 
d="M0 95v100l49 52v453h110v-335l121 130v-100l-121 -130v-165h181v-100h-291v147z" />
    <glyph glyph-name="lslash" unicode="&#x142;" horiz-adv-x="348" 
d="M0 95v100l49 52v453h110v-335l121 130v-100l-121 -130v-165h181v-100h-291v147z" />
    <glyph glyph-name="Nacute" unicode="&#x143;" horiz-adv-x="427" 
d="M275 0l-135 507h-2v-507h-99v700h138l111 -419h2v419h98v-700h-113zM223 848h108l-102 -111h-74z" />
    <glyph glyph-name="nacute" unicode="&#x144;" horiz-adv-x="427" 
d="M275 0l-135 507h-2v-507h-99v700h138l111 -419h2v419h98v-700h-113zM223 848h108l-102 -111h-74z" />
    <glyph glyph-name="uni0145" unicode="&#x145;" horiz-adv-x="427" 
d="M275 0l-135 507h-2v-507h-99v700h138l111 -419h2v419h98v-700h-113zM203 -125h-36v92h92v-82l-43 -64h-39z" />
    <glyph glyph-name="uni0146" unicode="&#x146;" horiz-adv-x="427" 
d="M275 0l-135 507h-2v-507h-99v700h138l111 -419h2v419h98v-700h-113zM203 -125h-36v92h92v-82l-43 -64h-39z" />
    <glyph glyph-name="Ncaron" unicode="&#x147;" horiz-adv-x="427" 
d="M275 0l-135 507h-2v-507h-99v700h138l111 -419h2v419h98v-700h-113zM75 848h94l44 -56l45 56h94l-89 -111h-99z" />
    <glyph glyph-name="ncaron" unicode="&#x148;" horiz-adv-x="427" 
d="M275 0l-135 507h-2v-507h-99v700h138l111 -419h2v419h98v-700h-113zM75 848h94l44 -56l45 56h94l-89 -111h-99z" />
    <glyph glyph-name="napostrophe" unicode="&#x149;" horiz-adv-x="543" 
d="M391 0l-135 507h-2v-507h-99v700h138l111 -419h2v419h98v-700h-113zM47 594h-42v106h106v-95l-48 -111h-45z" />
    <glyph glyph-name="Omacron" unicode="&#x14c;" 
d="M141 539v-378q0 -69 57 -69t57 69v378q0 69 -57 69t-57 -69zM31 168v364q0 84 43 130t124 46t124 -46t43 -130v-364q0 -84 -43 -130t-124 -46t-124 46t-43 130zM83 819h230v-78h-230v78z" />
    <glyph glyph-name="omacron" unicode="&#x14d;" 
d="M141 539v-378q0 -69 57 -69t57 69v378q0 69 -57 69t-57 -69zM31 168v364q0 84 43 130t124 46t124 -46t43 -130v-364q0 -84 -43 -130t-124 -46t-124 46t-43 130zM83 819h230v-78h-230v78z" />
    <glyph glyph-name="Obreve" unicode="&#x14e;" 
d="M141 539v-378q0 -69 57 -69t57 69v378q0 69 -57 69t-57 -69zM31 168v364q0 84 43 130t124 46t124 -46t43 -130v-364q0 -84 -43 -130t-124 -46t-124 46t-43 130zM245 848h65q0 -54 -29 -84.5t-84 -30.5t-82.5 30.5t-28.5 84.5h65q2 -27 13 -37t33 -10q23 0 34.5 10
t13.5 37z" />
    <glyph glyph-name="obreve" unicode="&#x14f;" 
d="M141 539v-378q0 -69 57 -69t57 69v378q0 69 -57 69t-57 -69zM31 168v364q0 84 43 130t124 46t124 -46t43 -130v-364q0 -84 -43 -130t-124 -46t-124 46t-43 130zM245 848h65q0 -54 -29 -84.5t-84 -30.5t-82.5 30.5t-28.5 84.5h65q2 -27 13 -37t33 -10q23 0 34.5 10
t13.5 37z" />
    <glyph glyph-name="Ohungarumlaut" unicode="&#x150;" 
d="M141 539v-378q0 -69 57 -69t57 69v378q0 69 -57 69t-57 -69zM31 168v364q0 84 43 130t124 46t124 -46t43 -130v-364q0 -84 -43 -130t-124 -46t-124 46t-43 130zM132 848h100l-83 -111h-67zM262 848h101l-84 -111h-66z" />
    <glyph glyph-name="ohungarumlaut" unicode="&#x151;" 
d="M141 539v-378q0 -69 57 -69t57 69v378q0 69 -57 69t-57 -69zM31 168v364q0 84 43 130t124 46t124 -46t43 -130v-364q0 -84 -43 -130t-124 -46t-124 46t-43 130zM132 848h100l-83 -111h-67zM262 848h101l-84 -111h-66z" />
    <glyph glyph-name="OE" unicode="&#x152;" horiz-adv-x="586" 
d="M368 600v-195h151v-100h-151v-205h190v-100h-364q-164 0 -164 173v354q0 173 164 173h364v-100h-190zM258 100v500h-62q-56 0 -56 -68v-364q0 -68 56 -68h62z" />
    <glyph glyph-name="oe" unicode="&#x153;" horiz-adv-x="586" 
d="M368 600v-195h151v-100h-151v-205h190v-100h-364q-164 0 -164 173v354q0 173 164 173h364v-100h-190zM258 100v500h-62q-56 0 -56 -68v-364q0 -68 56 -68h62z" />
    <glyph glyph-name="Racute" unicode="&#x154;" horiz-adv-x="402" 
d="M382 0h-112q-10 30 -10 86v110q0 48 -17 68.5t-55 20.5h-38v-285h-110v700h166q85 0 124 -39.5t39 -121.5v-55q0 -107 -72 -141v-2q73 -31 73 -148v-108q0 -57 12 -85zM203 600h-53v-215h43q33 0 49.5 17t16.5 57v69q0 72 -56 72zM205 848h108l-102 -111h-74z" />
    <glyph glyph-name="racute" unicode="&#x155;" horiz-adv-x="402" 
d="M382 0h-112q-10 30 -10 86v110q0 48 -17 68.5t-55 20.5h-38v-285h-110v700h166q85 0 124 -39.5t39 -121.5v-55q0 -107 -72 -141v-2q73 -31 73 -148v-108q0 -57 12 -85zM203 600h-53v-215h43q33 0 49.5 17t16.5 57v69q0 72 -56 72zM205 848h108l-102 -111h-74z" />
    <glyph glyph-name="uni0156" unicode="&#x156;" horiz-adv-x="402" 
d="M382 0h-112q-10 30 -10 86v110q0 48 -17 68.5t-55 20.5h-38v-285h-110v700h166q85 0 124 -39.5t39 -121.5v-55q0 -107 -72 -141v-2q73 -31 73 -148v-108q0 -57 12 -85zM203 600h-53v-215h43q33 0 49.5 17t16.5 57v69q0 72 -56 72zM193 -125h-36v92h92v-82l-43 -64h-39z
" />
    <glyph glyph-name="uni0157" unicode="&#x157;" horiz-adv-x="402" 
d="M382 0h-112q-10 30 -10 86v110q0 48 -17 68.5t-55 20.5h-38v-285h-110v700h166q85 0 124 -39.5t39 -121.5v-55q0 -107 -72 -141v-2q73 -31 73 -148v-108q0 -57 12 -85zM203 600h-53v-215h43q33 0 49.5 17t16.5 57v69q0 72 -56 72zM193 -125h-36v92h92v-82l-43 -64h-39z
" />
    <glyph glyph-name="Rcaron" unicode="&#x158;" horiz-adv-x="402" 
d="M382 0h-112q-10 30 -10 86v110q0 48 -17 68.5t-55 20.5h-38v-285h-110v700h166q85 0 124 -39.5t39 -121.5v-55q0 -107 -72 -141v-2q73 -31 73 -148v-108q0 -57 12 -85zM203 600h-53v-215h43q33 0 49.5 17t16.5 57v69q0 72 -56 72zM56 848h94l44 -56l45 56h94l-89 -111
h-99z" />
    <glyph glyph-name="rcaron" unicode="&#x159;" horiz-adv-x="402" 
d="M382 0h-112q-10 30 -10 86v110q0 48 -17 68.5t-55 20.5h-38v-285h-110v700h166q85 0 124 -39.5t39 -121.5v-55q0 -107 -72 -141v-2q73 -31 73 -148v-108q0 -57 12 -85zM203 600h-53v-215h43q33 0 49.5 17t16.5 57v69q0 72 -56 72zM56 848h94l44 -56l45 56h94l-89 -111
h-99z" />
    <glyph glyph-name="Sacute" unicode="&#x15a;" horiz-adv-x="374" 
d="M26 532q0 85 41 130.5t121 45.5t121 -45.5t41 -130.5v-22h-104v29q0 69 -55 69t-55 -69q0 -39 20.5 -72t73.5 -80q68 -60 94.5 -109t26.5 -110q0 -85 -42 -130.5t-122 -45.5t-122 45.5t-42 130.5v43h104v-50q0 -68 57 -68t57 68q0 39 -20.5 72t-73.5 80q-68 60 -94.5 109
t-26.5 110zM197 848h108l-102 -111h-74z" />
    <glyph glyph-name="sacute" unicode="&#x15b;" horiz-adv-x="374" 
d="M26 532q0 85 41 130.5t121 45.5t121 -45.5t41 -130.5v-22h-104v29q0 69 -55 69t-55 -69q0 -39 20.5 -72t73.5 -80q68 -60 94.5 -109t26.5 -110q0 -85 -42 -130.5t-122 -45.5t-122 45.5t-42 130.5v43h104v-50q0 -68 57 -68t57 68q0 39 -20.5 72t-73.5 80q-68 60 -94.5 109
t-26.5 110zM197 848h108l-102 -111h-74z" />
    <glyph glyph-name="Scircumflex" unicode="&#x15c;" horiz-adv-x="374" 
d="M26 532q0 85 41 130.5t121 45.5t121 -45.5t41 -130.5v-22h-104v29q0 69 -55 69t-55 -69q0 -39 20.5 -72t73.5 -80q68 -60 94.5 -109t26.5 -110q0 -85 -42 -130.5t-122 -45.5t-122 45.5t-42 130.5v43h104v-50q0 -68 57 -68t57 68q0 39 -20.5 72t-73.5 80q-68 60 -94.5 109
t-26.5 110zM142 737h-94l89 111h99l89 -111h-94l-45 55z" />
    <glyph glyph-name="scircumflex" unicode="&#x15d;" horiz-adv-x="374" 
d="M26 532q0 85 41 130.5t121 45.5t121 -45.5t41 -130.5v-22h-104v29q0 69 -55 69t-55 -69q0 -39 20.5 -72t73.5 -80q68 -60 94.5 -109t26.5 -110q0 -85 -42 -130.5t-122 -45.5t-122 45.5t-42 130.5v43h104v-50q0 -68 57 -68t57 68q0 39 -20.5 72t-73.5 80q-68 60 -94.5 109
t-26.5 110zM142 737h-94l89 111h99l89 -111h-94l-45 55z" />
    <glyph glyph-name="Scedilla" unicode="&#x15e;" horiz-adv-x="374" 
d="M23 168v43h104v-50q0 -68 57 -68t57 68q0 39 -20.5 72t-73.5 80q-68 60 -94.5 109t-26.5 110q0 85 41 130.5t121 45.5t121 -45.5t41 -130.5v-22h-104v29q0 69 -55 69t-55 -69q0 -39 20.5 -72t73.5 -80q68 -60 94.5 -109t26.5 -110q0 -80 -37 -125t-109 -50v-32
q38 0 56 -10.5t18 -36.5q0 -37 -25 -49t-76 -12q-96 0 -96 58v10h74v-8q0 -20 22 -20q25 0 25 24q0 26 -36 26h-10v51q-134 17 -134 174z" />
    <glyph glyph-name="scedilla" unicode="&#x15f;" horiz-adv-x="374" 
d="M23 168v43h104v-50q0 -68 57 -68t57 68q0 39 -20.5 72t-73.5 80q-68 60 -94.5 109t-26.5 110q0 85 41 130.5t121 45.5t121 -45.5t41 -130.5v-22h-104v29q0 69 -55 69t-55 -69q0 -39 20.5 -72t73.5 -80q68 -60 94.5 -109t26.5 -110q0 -80 -37 -125t-109 -50v-32
q38 0 56 -10.5t18 -36.5q0 -37 -25 -49t-76 -12q-96 0 -96 58v10h74v-8q0 -20 22 -20q25 0 25 24q0 26 -36 26h-10v51q-134 17 -134 174z" />
    <glyph glyph-name="Scaron" unicode="&#x160;" horiz-adv-x="374" 
d="M26 532q0 85 41 130.5t121 45.5t121 -45.5t41 -130.5v-22h-104v29q0 69 -55 69t-55 -69q0 -39 20.5 -72t73.5 -80q68 -60 94.5 -109t26.5 -110q0 -85 -42 -130.5t-122 -45.5t-122 45.5t-42 130.5v43h104v-50q0 -68 57 -68t57 68q0 39 -20.5 72t-73.5 80q-68 60 -94.5 109
t-26.5 110zM49 848h94l44 -56l45 56h94l-89 -111h-99z" />
    <glyph glyph-name="scaron" unicode="&#x161;" horiz-adv-x="374" 
d="M26 532q0 85 41 130.5t121 45.5t121 -45.5t41 -130.5v-22h-104v29q0 69 -55 69t-55 -69q0 -39 20.5 -72t73.5 -80q68 -60 94.5 -109t26.5 -110q0 -85 -42 -130.5t-122 -45.5t-122 45.5t-42 130.5v43h104v-50q0 -68 57 -68t57 68q0 39 -20.5 72t-73.5 80q-68 60 -94.5 109
t-26.5 110zM48 848h94l44 -56l45 56h94l-89 -111h-99z" />
    <glyph glyph-name="uni0162" unicode="&#x162;" horiz-adv-x="356" 
d="M88 -109v10h64v-10q0 -18 21 -18q26 0 26 26q0 28 -36 28h-11v73h-29v600h-115v100h340v-100h-115v-600h-31v-39q29 0 46 -15.5t17 -41.5q0 -42 -25.5 -62t-65.5 -20q-36 0 -61 18t-25 51z" />
    <glyph glyph-name="uni0163" unicode="&#x163;" horiz-adv-x="356" 
d="M88 -109v10h64v-10q0 -18 21 -18q26 0 26 26q0 28 -36 28h-11v73h-29v600h-115v100h340v-100h-115v-600h-31v-39q29 0 46 -15.5t17 -41.5q0 -42 -25.5 -62t-65.5 -20q-36 0 -61 18t-25 51z" />
    <glyph glyph-name="Tcaron" unicode="&#x164;" horiz-adv-x="356" 
d="M8 600v100h340v-100h-115v-600h-110v600h-115zM39 848h94l44 -56l45 56h94l-89 -111h-99z" />
    <glyph glyph-name="tcaron" unicode="&#x165;" horiz-adv-x="356" 
d="M8 600v100h340v-100h-115v-600h-110v600h-115zM39 848h94l44 -56l45 56h94l-89 -111h-99z" />
    <glyph glyph-name="Tbar" unicode="&#x166;" horiz-adv-x="356" 
d="M57 487h66v113h-115v100h340v-100h-115v-113h66v-82h-66v-405h-110v405h-66v82z" />
    <glyph glyph-name="tbar" unicode="&#x167;" horiz-adv-x="356" 
d="M57 487h66v113h-115v100h340v-100h-115v-113h66v-82h-66v-405h-110v405h-66v82z" />
    <glyph glyph-name="Utilde" unicode="&#x168;" horiz-adv-x="398" 
d="M35 700h110v-540q0 -68 57 -68t57 68v540h104v-533q0 -85 -42 -130.5t-122 -45.5t-122 45.5t-42 130.5v533zM240 813q29 0 43 29l53 -37q-26 -68 -85 -68q-24 0 -53 14q-22 11 -37 11q-29 0 -43 -29l-53 37q26 68 85 68q25 0 53 -14q22 -11 37 -11z" />
    <glyph glyph-name="utilde" unicode="&#x169;" horiz-adv-x="398" 
d="M35 700h110v-540q0 -68 57 -68t57 68v540h104v-533q0 -85 -42 -130.5t-122 -45.5t-122 45.5t-42 130.5v533zM240 813q29 0 43 29l53 -37q-26 -68 -85 -68q-24 0 -53 14q-22 11 -37 11q-29 0 -43 -29l-53 37q26 68 85 68q25 0 53 -14q22 -11 37 -11z" />
    <glyph glyph-name="Umacron" unicode="&#x16a;" horiz-adv-x="398" 
d="M35 700h110v-540q0 -68 57 -68t57 68v540h104v-533q0 -85 -42 -130.5t-122 -45.5t-122 45.5t-42 130.5v533zM85 819h230v-78h-230v78z" />
    <glyph glyph-name="umacron" unicode="&#x16b;" horiz-adv-x="398" 
d="M35 700h110v-540q0 -68 57 -68t57 68v540h104v-533q0 -85 -42 -130.5t-122 -45.5t-122 45.5t-42 130.5v533zM85 819h230v-78h-230v78z" />
    <glyph glyph-name="Ubreve" unicode="&#x16c;" horiz-adv-x="398" 
d="M35 700h110v-540q0 -68 57 -68t57 68v540h104v-533q0 -85 -42 -130.5t-122 -45.5t-122 45.5t-42 130.5v533zM247 848h65q0 -54 -29 -84.5t-84 -30.5t-82.5 30.5t-28.5 84.5h65q2 -27 13 -37t33 -10q23 0 34.5 10t13.5 37z" />
    <glyph glyph-name="ubreve" unicode="&#x16d;" horiz-adv-x="398" 
d="M35 700h110v-540q0 -68 57 -68t57 68v540h104v-533q0 -85 -42 -130.5t-122 -45.5t-122 45.5t-42 130.5v533zM247 848h65q0 -54 -29 -84.5t-84 -30.5t-82.5 30.5t-28.5 84.5h65q2 -27 13 -37t33 -10q23 0 34.5 10t13.5 37z" />
    <glyph glyph-name="Uring" unicode="&#x16e;" horiz-adv-x="398" 
d="M35 700h110v-540q0 -68 57 -68t57 68v540h104v-533q0 -85 -42 -130.5t-122 -45.5t-122 45.5t-42 130.5v533zM120 814q0 34 23 57t57 23t57 -23t23 -57t-23 -57t-57 -23t-57 23t-23 57zM170 814q0 -13 8.5 -21.5t21.5 -8.5t21.5 8.5t8.5 21.5t-8.5 21.5t-21.5 8.5
t-21.5 -8.5t-8.5 -21.5z" />
    <glyph glyph-name="uring" unicode="&#x16f;" horiz-adv-x="398" 
d="M35 700h110v-540q0 -68 57 -68t57 68v540h104v-533q0 -85 -42 -130.5t-122 -45.5t-122 45.5t-42 130.5v533zM120 814q0 34 23 57t57 23t57 -23t23 -57t-23 -57t-57 -23t-57 23t-23 57zM170 814q0 -13 8.5 -21.5t21.5 -8.5t21.5 8.5t8.5 21.5t-8.5 21.5t-21.5 8.5
t-21.5 -8.5t-8.5 -21.5z" />
    <glyph glyph-name="Uhungarumlaut" unicode="&#x170;" horiz-adv-x="398" 
d="M35 700h110v-540q0 -68 57 -68t57 68v540h104v-533q0 -85 -42 -130.5t-122 -45.5t-122 45.5t-42 130.5v533zM134 848h100l-83 -111h-67zM264 848h101l-84 -111h-66z" />
    <glyph glyph-name="uhungarumlaut" unicode="&#x171;" horiz-adv-x="398" 
d="M35 700h110v-540q0 -68 57 -68t57 68v540h104v-533q0 -85 -42 -130.5t-122 -45.5t-122 45.5t-42 130.5v533zM134 848h100l-83 -111h-67zM264 848h101l-84 -111h-66z" />
    <glyph glyph-name="Uogonek" unicode="&#x172;" horiz-adv-x="398" 
d="M35 700h110v-540q0 -68 57 -68t57 68v540h104v-533q0 -110 -63 -159q-34 -27 -34 -66q0 -13 10 -20.5t25 -7.5q14 0 36 6v-56q-28 -11 -68 -11q-41 0 -64 16t-23 46q0 46 56 78v2q-16 -4 -39 -4q-80 0 -122 45.5t-42 130.5v533z" />
    <glyph glyph-name="uogonek" unicode="&#x173;" horiz-adv-x="398" 
d="M35 700h110v-540q0 -68 57 -68t57 68v540h104v-533q0 -110 -63 -159q-34 -27 -34 -66q0 -13 10 -20.5t25 -7.5q14 0 36 6v-56q-28 -11 -68 -11q-41 0 -64 16t-23 46q0 46 56 78v2q-16 -4 -39 -4q-80 0 -122 45.5t-42 130.5v533z" />
    <glyph glyph-name="Wcircumflex" unicode="&#x174;" horiz-adv-x="563" 
d="M324 0l-39 373h-2l-39 -373h-151l-78 700h107l58 -552h2l52 552h106l54 -556h2l56 556h96l-78 -700h-146zM237 737h-94l89 111h99l89 -111h-94l-45 55z" />
    <glyph glyph-name="wcircumflex" unicode="&#x175;" horiz-adv-x="563" 
d="M324 0l-39 373h-2l-39 -373h-151l-78 700h107l58 -552h2l52 552h106l54 -556h2l56 556h96l-78 -700h-146zM237 737h-94l89 111h99l89 -111h-94l-45 55z" />
    <glyph glyph-name="Ycircumflex" unicode="&#x176;" 
d="M143 0v232l-139 468h115l83 -319h2l83 319h105l-139 -468v-232h-110zM158 737h-94l89 111h99l89 -111h-94l-45 55z" />
    <glyph glyph-name="ycircumflex" unicode="&#x177;" 
d="M143 0v232l-139 468h115l83 -319h2l83 319h105l-139 -468v-232h-110zM158 737h-94l89 111h99l89 -111h-94l-45 55z" />
    <glyph glyph-name="Ydieresis" unicode="&#x178;" 
d="M143 0v232l-139 468h115l83 -319h2l83 319h105l-139 -468v-232h-110zM78 833h96v-96h-96v96zM230 833h96v-96h-96v96z" />
    <glyph glyph-name="Zacute" unicode="&#x179;" horiz-adv-x="370" 
d="M33 700h312v-98l-209 -502h209v-100h-322v98l209 502h-199v100zM196 848h108l-102 -111h-74z" />
    <glyph glyph-name="zacute" unicode="&#x17a;" horiz-adv-x="370" 
d="M33 700h312v-98l-209 -502h209v-100h-322v98l209 502h-199v100zM196 848h108l-102 -111h-74z" />
    <glyph glyph-name="Zdotaccent" unicode="&#x17b;" horiz-adv-x="370" 
d="M33 700h312v-98l-209 -502h209v-100h-322v98l209 502h-199v100zM138 833h96v-96h-96v96z" />
    <glyph glyph-name="zdotaccent" unicode="&#x17c;" horiz-adv-x="370" 
d="M33 700h312v-98l-209 -502h209v-100h-322v98l209 502h-199v100zM138 833h96v-96h-96v96z" />
    <glyph glyph-name="Zcaron" unicode="&#x17d;" horiz-adv-x="370" 
d="M33 700h312v-98l-209 -502h209v-100h-322v98l209 502h-199v100zM48 848h94l44 -56l45 56h94l-89 -111h-99z" />
    <glyph glyph-name="zcaron" unicode="&#x17e;" horiz-adv-x="370" 
d="M33 700h312v-98l-209 -502h209v-100h-322v98l209 502h-199v100zM48 848h94l44 -56l45 56h94l-89 -111h-99z" />
    <glyph glyph-name="AEacute" unicode="&#x1fc;" horiz-adv-x="580" 
d="M252 0v127h-111l-32 -127h-105l187 700h361v-100h-190v-195h151v-100h-151v-205h190v-100h-300zM166 222h86v337h-2zM300 848h108l-102 -111h-74z" />
    <glyph glyph-name="aeacute" unicode="&#x1fd;" horiz-adv-x="580" 
d="M252 0v127h-111l-32 -127h-105l187 700h361v-100h-190v-195h151v-100h-151v-205h190v-100h-300zM166 222h86v337h-2zM300 848h108l-102 -111h-74z" />
    <glyph glyph-name="Oslashacute" unicode="&#x1fe;" 
d="M31 168v364q0 84 43 130t124 46q60 0 100 -26l20 55l37 -13l-26 -71q36 -43 36 -121v-364q0 -84 -43 -130t-124 -46q-62 0 -100 25l-20 -54l-37 13l25 70q-35 46 -35 122zM253 443l-111 -303q8 -48 56 -48q57 0 57 69v282h-2zM141 539v-282h2l110 303q-7 48 -55 48
q-57 0 -57 -69zM208 848h108l-102 -111h-74z" />
    <glyph glyph-name="oslashacute" unicode="&#x1ff;" 
d="M31 168v364q0 84 43 130t124 46q60 0 100 -26l20 55l37 -13l-26 -71q36 -43 36 -121v-364q0 -84 -43 -130t-124 -46q-62 0 -100 25l-20 -54l-37 13l25 70q-35 46 -35 122zM253 443l-111 -303q8 -48 56 -48q57 0 57 69v282h-2zM141 539v-282h2l110 303q-7 48 -55 48
q-57 0 -57 -69zM208 848h108l-102 -111h-74z" />
    <glyph glyph-name="uni0218" unicode="&#x218;" horiz-adv-x="374" 
d="M174 -125h-36v92h92v-82l-43 -64h-39zM26 532q0 85 41 130.5t121 45.5t121 -45.5t41 -130.5v-22h-104v29q0 69 -55 69t-55 -69q0 -39 20.5 -72t73.5 -80q68 -60 94.5 -109t26.5 -110q0 -85 -42 -130.5t-122 -45.5t-122 45.5t-42 130.5v43h104v-50q0 -68 57 -68t57 68
q0 39 -20.5 72t-73.5 80q-68 60 -94.5 109t-26.5 110z" />
    <glyph glyph-name="uni0219" unicode="&#x219;" horiz-adv-x="374" 
d="M174 -125h-36v92h92v-82l-43 -64h-39zM26 532q0 85 41 130.5t121 45.5t121 -45.5t41 -130.5v-22h-104v29q0 69 -55 69t-55 -69q0 -39 20.5 -72t73.5 -80q68 -60 94.5 -109t26.5 -110q0 -85 -42 -130.5t-122 -45.5t-122 45.5t-42 130.5v43h104v-50q0 -68 57 -68t57 68
q0 39 -20.5 72t-73.5 80q-68 60 -94.5 109t-26.5 110z" />
    <glyph glyph-name="uni021A" unicode="&#x21a;" horiz-adv-x="356" 
d="M8 600v100h340v-100h-115v-600h-110v600h-115zM168 -125h-36v92h92v-82l-43 -64h-39z" />
    <glyph glyph-name="uni021B" unicode="&#x21b;" horiz-adv-x="356" 
d="M8 600v100h340v-100h-115v-600h-110v600h-115zM168 -125h-36v92h92v-82l-43 -64h-39z" />
    <glyph glyph-name="uni0237" unicode="&#x237;" horiz-adv-x="256" 
d="M10 0v100q12 -1 38 -1q63 0 63 67v534h110v-526q0 -176 -158 -176q-35 0 -53 2z" />
    <glyph glyph-name="uni02BC" unicode="&#x2bc;" horiz-adv-x="186" 
d="M82 594h-42v106h106v-95l-48 -111h-45z" />
    <glyph glyph-name="circumflex" unicode="&#x2c6;" horiz-adv-x="250" 
d="M81 737h-94l89 111h99l89 -111h-94l-45 55z" />
    <glyph glyph-name="caron" unicode="&#x2c7;" horiz-adv-x="250" 
d="M-13 848h94l44 -56l45 56h94l-89 -111h-99z" />
    <glyph glyph-name="breve" unicode="&#x2d8;" horiz-adv-x="250" 
d="M172 848h65q0 -54 -29 -84.5t-84 -30.5t-82.5 30.5t-28.5 84.5h65q2 -27 13 -37t33 -10q23 0 34.5 10t13.5 37z" />
    <glyph glyph-name="dotaccent" unicode="&#x2d9;" horiz-adv-x="250" 
d="M77 833h96v-96h-96v96z" />
    <glyph glyph-name="ring" unicode="&#x2da;" horiz-adv-x="250" 
d="M45 814q0 34 23 57t57 23t57 -23t23 -57t-23 -57t-57 -23t-57 23t-23 57zM95 814q0 -13 8.5 -21.5t21.5 -8.5t21.5 8.5t8.5 21.5t-8.5 21.5t-21.5 8.5t-21.5 -8.5t-8.5 -21.5z" />
    <glyph glyph-name="ogonek" unicode="&#x2db;" horiz-adv-x="250" 
d="M123 4h43q-35 -27 -35 -62q0 -13 10 -20.5t25 -7.5q14 0 36 6v-56q-28 -11 -68 -11q-41 0 -64 16t-23 46q0 53 76 89z" />
    <glyph glyph-name="tilde" unicode="&#x2dc;" horiz-adv-x="250" 
d="M165 813q29 0 43 29l53 -37q-26 -68 -85 -68q-24 0 -53 14q-22 11 -37 11q-29 0 -43 -29l-53 37q26 68 85 68q25 0 53 -14q22 -11 37 -11z" />
    <glyph glyph-name="hungarumlaut" unicode="&#x2dd;" horiz-adv-x="250" 
d="M25 848h100l-83 -111h-67zM155 848h101l-84 -111h-66z" />
    <glyph glyph-name="uni1E02" unicode="&#x1e02;" horiz-adv-x="406" 
d="M206 700q85 0 124 -39.5t39 -121.5v-25q0 -107 -71 -140v-2q82 -32 82 -149v-57q0 -81 -42.5 -123.5t-124.5 -42.5h-173v700h166zM199 315h-49v-215h63q29 0 43 15.5t14 53.5v61q0 48 -16.5 66.5t-54.5 18.5zM203 600h-53v-185h43q33 0 49.5 17t16.5 57v39q0 72 -56 72z
M138 833h96v-96h-96v96z" />
    <glyph glyph-name="uni1E03" unicode="&#x1e03;" horiz-adv-x="406" 
d="M206 700q85 0 124 -39.5t39 -121.5v-25q0 -107 -71 -140v-2q82 -32 82 -149v-57q0 -81 -42.5 -123.5t-124.5 -42.5h-173v700h166zM199 315h-49v-215h63q29 0 43 15.5t14 53.5v61q0 48 -16.5 66.5t-54.5 18.5zM203 600h-53v-185h43q33 0 49.5 17t16.5 57v39q0 72 -56 72z
M138 833h96v-96h-96v96z" />
    <glyph glyph-name="uni1E0A" unicode="&#x1e0a;" horiz-adv-x="408" 
d="M40 0v700h174q164 0 164 -173v-354q0 -173 -164 -173h-174zM212 600h-62v-500h62q56 0 56 68v364q0 68 -56 68zM146 833h96v-96h-96v96z" />
    <glyph glyph-name="uni1E0B" unicode="&#x1e0b;" horiz-adv-x="408" 
d="M40 0v700h174q164 0 164 -173v-354q0 -173 -164 -173h-174zM212 600h-62v-500h62q56 0 56 68v364q0 68 -56 68zM146 833h96v-96h-96v96z" />
    <glyph glyph-name="uni1E1E" unicode="&#x1e1e;" horiz-adv-x="344" 
d="M150 600v-211h142v-100h-142v-289h-110v700h291v-100h-181zM134 833h96v-96h-96v96z" />
    <glyph glyph-name="uni1E1F" unicode="&#x1e1f;" horiz-adv-x="344" 
d="M150 600v-211h142v-100h-142v-289h-110v700h291v-100h-181zM134 833h96v-96h-96v96z" />
    <glyph glyph-name="uni1E40" unicode="&#x1e40;" horiz-adv-x="541" 
d="M192 700l80 -497h2l74 497h153v-700h-104v502h-2l-74 -502h-104l-80 495h-2v-495h-96v700h153zM222 833h96v-96h-96v96z" />
    <glyph glyph-name="uni1E41" unicode="&#x1e41;" horiz-adv-x="541" 
d="M192 700l80 -497h2l74 497h153v-700h-104v502h-2l-74 -502h-104l-80 495h-2v-495h-96v700h153zM222 833h96v-96h-96v96z" />
    <glyph glyph-name="uni1E56" unicode="&#x1e56;" horiz-adv-x="377" 
d="M202 700q164 0 164 -173v-91q0 -173 -164 -173h-52v-263h-110v700h162zM202 600h-52v-237h52q27 0 40.5 15t13.5 51v105q0 36 -13.5 51t-40.5 15zM142 833h96v-96h-96v96z" />
    <glyph glyph-name="uni1E57" unicode="&#x1e57;" horiz-adv-x="377" 
d="M202 700q164 0 164 -173v-91q0 -173 -164 -173h-52v-263h-110v700h162zM202 600h-52v-237h52q27 0 40.5 15t13.5 51v105q0 36 -13.5 51t-40.5 15zM142 833h96v-96h-96v96z" />
    <glyph glyph-name="uni1E60" unicode="&#x1e60;" horiz-adv-x="374" 
d="M26 532q0 85 41 130.5t121 45.5t121 -45.5t41 -130.5v-22h-104v29q0 69 -55 69t-55 -69q0 -39 20.5 -72t73.5 -80q68 -60 94.5 -109t26.5 -110q0 -85 -42 -130.5t-122 -45.5t-122 45.5t-42 130.5v43h104v-50q0 -68 57 -68t57 68q0 39 -20.5 72t-73.5 80q-68 60 -94.5 109
t-26.5 110zM139 833h96v-96h-96v96z" />
    <glyph glyph-name="uni1E61" unicode="&#x1e61;" horiz-adv-x="374" 
d="M26 532q0 85 41 130.5t121 45.5t121 -45.5t41 -130.5v-22h-104v29q0 69 -55 69t-55 -69q0 -39 20.5 -72t73.5 -80q68 -60 94.5 -109t26.5 -110q0 -85 -42 -130.5t-122 -45.5t-122 45.5t-42 130.5v43h104v-50q0 -68 57 -68t57 68q0 39 -20.5 72t-73.5 80q-68 60 -94.5 109
t-26.5 110zM139 833h96v-96h-96v96z" />
    <glyph glyph-name="uni1E6A" unicode="&#x1e6a;" horiz-adv-x="356" 
d="M8 600v100h340v-100h-115v-600h-110v600h-115zM130 833h96v-96h-96v96z" />
    <glyph glyph-name="uni1E6B" unicode="&#x1e6b;" horiz-adv-x="356" 
d="M8 600v100h340v-100h-115v-600h-110v600h-115zM130 833h96v-96h-96v96z" />
    <glyph glyph-name="Wgrave" unicode="&#x1e80;" horiz-adv-x="563" 
d="M324 0l-39 373h-2l-39 -373h-151l-78 700h107l58 -552h2l52 552h106l54 -556h2l56 556h96l-78 -700h-146zM161 848h113l68 -111h-79z" />
    <glyph glyph-name="wgrave" unicode="&#x1e81;" horiz-adv-x="563" 
d="M324 0l-39 373h-2l-39 -373h-151l-78 700h107l58 -552h2l52 552h106l54 -556h2l56 556h96l-78 -700h-146zM161 848h113l68 -111h-79z" />
    <glyph glyph-name="Wacute" unicode="&#x1e82;" horiz-adv-x="563" 
d="M324 0l-39 373h-2l-39 -373h-151l-78 700h107l58 -552h2l52 552h106l54 -556h2l56 556h96l-78 -700h-146zM291 848h108l-102 -111h-74z" />
    <glyph glyph-name="wacute" unicode="&#x1e83;" horiz-adv-x="563" 
d="M324 0l-39 373h-2l-39 -373h-151l-78 700h107l58 -552h2l52 552h106l54 -556h2l56 556h96l-78 -700h-146zM291 848h108l-102 -111h-74z" />
    <glyph glyph-name="Wdieresis" unicode="&#x1e84;" horiz-adv-x="563" 
d="M324 0l-39 373h-2l-39 -373h-151l-78 700h107l58 -552h2l52 552h106l54 -556h2l56 556h96l-78 -700h-146zM157 833h96v-96h-96v96zM309 833h96v-96h-96v96z" />
    <glyph glyph-name="wdieresis" unicode="&#x1e85;" horiz-adv-x="563" 
d="M324 0l-39 373h-2l-39 -373h-151l-78 700h107l58 -552h2l52 552h106l54 -556h2l56 556h96l-78 -700h-146zM157 833h96v-96h-96v96zM309 833h96v-96h-96v96z" />
    <glyph glyph-name="Ygrave" unicode="&#x1ef2;" 
d="M143 0v232l-139 468h115l83 -319h2l83 319h105l-139 -468v-232h-110zM82 848h113l68 -111h-79z" />
    <glyph glyph-name="ygrave" unicode="&#x1ef3;" 
d="M143 0v232l-139 468h115l83 -319h2l83 319h105l-139 -468v-232h-110zM82 848h113l68 -111h-79z" />
    <glyph glyph-name="figuredash" unicode="&#x2012;" 
d="M0 305v90h396v-90h-396z" />
    <glyph glyph-name="endash" unicode="&#x2013;" horiz-adv-x="500" 
d="M0 305v90h500v-90h-500z" />
    <glyph glyph-name="emdash" unicode="&#x2014;" horiz-adv-x="1000" 
d="M0 305v90h1000v-90h-1000z" />
    <glyph glyph-name="quoteleft" unicode="&#x2018;" horiz-adv-x="186" 
d="M104 600h42v-106h-106v95l48 111h45z" />
    <glyph glyph-name="quoteright" unicode="&#x2019;" horiz-adv-x="186" 
d="M82 594h-42v106h106v-95l-48 -111h-45z" />
    <glyph glyph-name="quotesinglbase" unicode="&#x201a;" horiz-adv-x="186" 
d="M82 0h-42v106h106v-95l-48 -111h-45z" />
    <glyph glyph-name="quotedblleft" unicode="&#x201c;" horiz-adv-x="332" 
d="M104 600h42v-106h-106v95l48 111h45zM250 600h42v-106h-106v95l48 111h45z" />
    <glyph glyph-name="quotedblright" unicode="&#x201d;" horiz-adv-x="332" 
d="M82 594h-42v106h106v-95l-48 -111h-45zM228 594h-42v106h106v-95l-48 -111h-45z" />
    <glyph glyph-name="quotedblbase" unicode="&#x201e;" horiz-adv-x="332" 
d="M82 0h-42v106h106v-95l-48 -111h-45zM228 0h-42v106h106v-95l-48 -111h-45z" />
    <glyph glyph-name="dagger" unicode="&#x2020;" 
d="M25 440v85h128v175h90v-175h128v-85h-128v-505h-90v505h-128z" />
    <glyph glyph-name="daggerdbl" unicode="&#x2021;" 
d="M25 440v85h128v175h90v-175h128v-85h-128v-245h128v-85h-128v-175h-90v175h-128v85h128v245h-128z" />
    <glyph glyph-name="bullet" unicode="&#x2022;" 
d="M59 350q0 58 40.5 98.5t98.5 40.5t98.5 -40.5t40.5 -98.5t-40.5 -98.5t-98.5 -40.5t-98.5 40.5t-40.5 98.5z" />
    <glyph glyph-name="ellipsis" unicode="&#x2026;" horiz-adv-x="478" 
d="M40 106h106v-106h-106v106zM186 106h106v-106h-106v106zM332 106h106v-106h-106v106z" />
    <glyph glyph-name="perthousand" unicode="&#x2030;" horiz-adv-x="883" 
d="M104 598v-240q0 -44 36 -44t36 44v240q0 44 -36 44t-36 -44zM34 363v230q0 54 27 83t79 29t79 -29t27 -83v-230q0 -54 -27 -83t-79 -29t-79 29t-27 83zM140 0l276 700h65l-276 -700h-65zM451 342v-240q0 -44 36 -44t36 44v240q0 44 -36 44t-36 -44zM381 107v230
q0 54 27 83t79 29t79 -29t27 -83v-230q0 -54 -27 -83t-79 -29t-79 29t-27 83zM707 342v-240q0 -44 36 -44t36 44v240q0 44 -36 44t-36 -44zM637 107v230q0 54 27 83t79 29t79 -29t27 -83v-230q0 -54 -27 -83t-79 -29t-79 29t-27 83z" />
    <glyph glyph-name="guilsinglleft" unicode="&#x2039;" horiz-adv-x="196" 
d="M76 617h104l-59 -266l59 -282h-104l-60 282z" />
    <glyph glyph-name="guilsinglright" unicode="&#x203a;" horiz-adv-x="196" 
d="M16 617h104l60 -266l-60 -282h-104l59 282z" />
    <glyph glyph-name="fraction" unicode="&#x2044;" horiz-adv-x="67" 
d="M-137 0l276 700h65l-276 -700h-65z" />
    <glyph glyph-name="zerosuperior" unicode="&#x2070;" horiz-adv-x="280" 
d="M104 693v-240q0 -44 36 -44t36 44v240q0 44 -36 44t-36 -44zM34 458v230q0 54 27 83t79 29t79 -29t27 -83v-230q0 -54 -27 -83t-79 -29t-79 29t-27 83z" />
    <glyph glyph-name="foursuperior" unicode="&#x2074;" horiz-adv-x="280" 
d="M24 431v64l127 300h76v-300h33v-64h-33v-80h-69v80h-134zM87 495h71v164h-2z" />
    <glyph glyph-name="fivesuperior" unicode="&#x2075;" horiz-adv-x="280" 
d="M37 493h66v-41q0 -43 36 -43t36 43v97q0 44 -36 44t-36 -44v-13h-66l13 258h184v-64h-123l-5 -106h2q19 33 60 33q77 0 77 -102v-99q0 -54 -26.5 -83t-77.5 -29t-77.5 29t-26.5 83v37z" />
    <glyph glyph-name="sixsuperior" unicode="&#x2076;" horiz-adv-x="280" 
d="M36 458v227q0 115 107 115q51 0 77.5 -29t26.5 -83v-11h-66v16q0 44 -36 44q-20 0 -29.5 -12t-9.5 -43v-80h2q18 38 63 38q77 0 77 -101v-81q0 -54 -27.5 -83t-78.5 -29t-78.5 29t-27.5 83zM142 577q-36 0 -36 -44v-80q0 -43 36 -43t36 43v80q0 44 -36 44z" />
    <glyph glyph-name="sevensuperior" unicode="&#x2077;" horiz-adv-x="280" 
d="M35 795h210v-61l-103 -383h-70l102 381h-139v63z" />
    <glyph glyph-name="eightsuperior" unicode="&#x2078;" horiz-adv-x="280" 
d="M249 458q0 -53 -28.5 -82.5t-80.5 -29.5t-80.5 29.5t-28.5 82.5v34q0 68 43 92v2q-43 24 -43 88v14q0 53 28.5 82.5t80.5 29.5t80.5 -29.5t28.5 -82.5v-14q0 -64 -43 -88v-2q43 -24 43 -92v-34zM101 459q0 -50 39 -50t39 50v42q0 50 -39 50t-39 -50v-42zM101 686v-25
q0 -47 39 -47t39 47v25q0 51 -39 51t-39 -51z" />
    <glyph glyph-name="ninesuperior" unicode="&#x2079;" horiz-adv-x="280" 
d="M244 688v-227q0 -115 -107 -115q-51 0 -77.5 29t-26.5 83v11h66v-16q0 -44 36 -44q20 0 29.5 12t9.5 43v80h-2q-18 -38 -63 -38q-77 0 -77 101v81q0 54 27.5 83t78.5 29t78.5 -29t27.5 -83zM138 569q36 0 36 44v80q0 43 -36 43t-36 -43v-80q0 -44 36 -44z" />
    <glyph glyph-name="zeroinferior" unicode="&#x2080;" horiz-adv-x="280" 
d="M104 277v-240q0 -44 36 -44t36 44v240q0 44 -36 44t-36 -44zM34 42v230q0 54 27 83t79 29t79 -29t27 -83v-230q0 -54 -27 -83t-79 -29t-79 29t-27 83z" />
    <glyph glyph-name="oneinferior" unicode="&#x2081;" horiz-adv-x="200" 
d="M25 274v49q36 0 51.5 14t26.5 42h46v-444h-70v339h-54z" />
    <glyph glyph-name="twoinferior" unicode="&#x2082;" horiz-adv-x="280" 
d="M180 272q0 50 -36 50t-36 -44v-47h-66v43q0 111 104 111t104 -111q0 -45 -19 -85.5t-67 -91.5q-53 -57 -53 -89q0 -8 1 -10h132v-63h-202v54q0 38 15 69.5t54 72.5q38 40 53.5 72t15.5 69z" />
    <glyph glyph-name="threeinferior" unicode="&#x2083;" horiz-adv-x="280" 
d="M174 44v34q0 31 -10.5 43.5t-34.5 12.5h-24v63h27q42 0 42 48v25q0 51 -36 51t-36 -44v-28h-66v23q0 112 104 112t104 -112v-11q0 -71 -49 -91q49 -21 49 -93v-35q0 -112 -104 -112t-104 112v36h66v-41q0 -44 36 -44t36 51z" />
    <glyph glyph-name="fourinferior" unicode="&#x2084;" horiz-adv-x="280" 
d="M24 15v64l127 300h76v-300h33v-64h-33v-80h-69v80h-134zM87 79h71v164h-2z" />
    <glyph glyph-name="fiveinferior" unicode="&#x2085;" horiz-adv-x="280" 
d="M37 77h66v-41q0 -43 36 -43t36 43v97q0 44 -36 44t-36 -44v-13h-66l13 258h184v-64h-123l-5 -106h2q19 33 60 33q77 0 77 -102v-99q0 -54 -26.5 -83t-77.5 -29t-77.5 29t-26.5 83v37z" />
    <glyph glyph-name="sixinferior" unicode="&#x2086;" horiz-adv-x="280" 
d="M36 42v227q0 115 107 115q51 0 77.5 -29t26.5 -83v-11h-66v16q0 44 -36 44q-20 0 -29.5 -12t-9.5 -43v-80h2q18 38 63 38q77 0 77 -101v-81q0 -54 -27.5 -83t-78.5 -29t-78.5 29t-27.5 83zM142 161q-36 0 -36 -44v-80q0 -43 36 -43t36 43v80q0 44 -36 44z" />
    <glyph glyph-name="seveninferior" unicode="&#x2087;" horiz-adv-x="280" 
d="M35 379h210v-61l-103 -383h-70l102 381h-139v63z" />
    <glyph glyph-name="eightinferior" unicode="&#x2088;" horiz-adv-x="280" 
d="M249 42q0 -53 -28.5 -82.5t-80.5 -29.5t-80.5 29.5t-28.5 82.5v34q0 68 43 92v2q-43 24 -43 88v14q0 53 28.5 82.5t80.5 29.5t80.5 -29.5t28.5 -82.5v-14q0 -64 -43 -88v-2q43 -24 43 -92v-34zM101 43q0 -50 39 -50t39 50v42q0 50 -39 50t-39 -50v-42zM101 270v-25
q0 -47 39 -47t39 47v25q0 51 -39 51t-39 -51z" />
    <glyph glyph-name="nineinferior" unicode="&#x2089;" horiz-adv-x="280" 
d="M244 272v-227q0 -115 -107 -115q-51 0 -77.5 29t-26.5 83v11h66v-16q0 -44 36 -44q20 0 29.5 12t9.5 43v80h-2q-18 -38 -63 -38q-77 0 -77 101v81q0 54 27.5 83t78.5 29t78.5 -29t27.5 -83zM138 153q36 0 36 44v80q0 43 -36 43t-36 -43v-80q0 -44 36 -44z" />
    <glyph glyph-name="Euro" unicode="&#x20ac;" 
d="M19 380v55h28v97q0 85 40.5 130.5t120.5 45.5t120.5 -45.5t40.5 -130.5v-51h-104v58q0 69 -54 69t-54 -69v-104h154v-55h-154v-55h154v-55h-154v-109q0 -68 54 -68t54 68v63h104v-56q0 -85 -40.5 -130.5t-120.5 -45.5t-120.5 45.5t-40.5 130.5v102h-28v55h28v55h-28z" />
    <glyph glyph-name="uni20B9" unicode="&#x20b9;" 
d="M26 549h176q0 36 -20.5 51t-63.5 15h-92v85h344v-85h-84q19 -28 25 -66h59v-85h-59q-6 -70 -54 -110.5t-114 -40.5l233 -313h-118l-232 313v85h92q43 0 63.5 15t20.5 51h-176v85z" />
    <glyph glyph-name="uni2117" unicode="&#x2117;" horiz-adv-x="736" 
d="M20 350q0 155 99.5 256.5t248.5 101.5t248.5 -101.5t99.5 -256.5t-99.5 -256.5t-248.5 -101.5t-248.5 101.5t-99.5 256.5zM92 350q0 -125 78.5 -206.5t197.5 -81.5t197.5 81.5t78.5 206.5t-78.5 206.5t-197.5 81.5t-197.5 -81.5t-78.5 -206.5zM275 127v428h116
q113 0 113 -112v-56q0 -112 -113 -112h-40v-148h-76zM428 396v38q0 51 -41 51h-36v-140h36q41 0 41 51z" />
    <glyph glyph-name="trademark" unicode="&#x2122;" horiz-adv-x="586" 
d="M365 700l51 -250h2l46 250h97v-356h-66v253h-2l-45 -253h-66l-51 251h-2v-251h-61v356h97zM10 636v64h216v-64h-73v-292h-70v292h-73z" />
    <glyph glyph-name="onethird" unicode="&#x2153;" horiz-adv-x="627" 
d="M65 595v49q36 0 51.5 14t26.5 42h46v-444h-70v339h-54zM521 109v34q0 31 -10.5 43.5t-34.5 12.5h-24v63h27q42 0 42 48v25q0 51 -36 51t-36 -44v-28h-66v23q0 112 104 112t104 -112v-11q0 -71 -49 -91q49 -21 49 -93v-35q0 -112 -104 -112t-104 112v36h66v-41
q0 -44 36 -44t36 51zM130 0l276 700h65l-276 -700h-65z" />
    <glyph glyph-name="twothirds" unicode="&#x2154;" horiz-adv-x="627" 
d="M180 592q0 50 -36 50t-36 -44v-47h-66v43q0 111 104 111t104 -111q0 -45 -19 -85.5t-67 -91.5q-53 -57 -53 -89q0 -8 1 -10h132v-63h-202v54q0 38 15 69.5t54 72.5q38 40 53.5 72t15.5 69zM153 0l276 700h65l-276 -700h-65zM521 109v34q0 31 -10.5 43.5t-34.5 12.5h-24
v63h27q42 0 42 48v25q0 51 -36 51t-36 -44v-28h-66v23q0 112 104 112t104 -112v-11q0 -71 -49 -91q49 -21 49 -93v-35q0 -112 -104 -112t-104 112v36h66v-41q0 -44 36 -44t36 51z" />
    <glyph glyph-name="oneeighth" unicode="&#x215b;" horiz-adv-x="627" 
d="M65 595v49q36 0 51.5 14t26.5 42h46v-444h-70v339h-54zM596 107q0 -53 -28.5 -82.5t-80.5 -29.5t-80.5 29.5t-28.5 82.5v34q0 68 43 92v2q-43 24 -43 88v14q0 53 28.5 82.5t80.5 29.5t80.5 -29.5t28.5 -82.5v-14q0 -64 -43 -88v-2q43 -24 43 -92v-34zM448 108
q0 -50 39 -50t39 50v42q0 50 -39 50t-39 -50v-42zM448 335v-25q0 -47 39 -47t39 47v25q0 51 -39 51t-39 -51zM130 0l276 700h65l-276 -700h-65z" />
    <glyph glyph-name="threeeighths" unicode="&#x215c;" horiz-adv-x="627" 
d="M174 365v34q0 31 -10.5 43.5t-34.5 12.5h-24v63h27q42 0 42 48v25q0 51 -36 51t-36 -44v-28h-66v23q0 112 104 112t104 -112v-11q0 -70 -49 -90v-2q49 -21 49 -92v-35q0 -112 -104 -112t-104 112v36h66v-41q0 -44 36 -44t36 51zM143 0l276 700h65l-276 -700h-65zM596 107
q0 -53 -28.5 -82.5t-80.5 -29.5t-80.5 29.5t-28.5 82.5v34q0 68 43 92v2q-43 24 -43 88v14q0 53 28.5 82.5t80.5 29.5t80.5 -29.5t28.5 -82.5v-14q0 -64 -43 -88v-2q43 -24 43 -92v-34zM448 108q0 -50 39 -50t39 50v42q0 50 -39 50t-39 -50v-42zM448 335v-25q0 -47 39 -47
t39 47v25q0 51 -39 51t-39 -51z" />
    <glyph glyph-name="fiveeighths" unicode="&#x215d;" horiz-adv-x="627" 
d="M37 398h66v-41q0 -43 36 -43t36 43v97q0 44 -36 44t-36 -44v-13h-66l13 258h184v-64h-123l-5 -106h2q19 33 60 33q77 0 77 -102v-99q0 -54 -26.5 -83t-77.5 -29t-77.5 29t-26.5 83v37zM143 0l276 700h65l-276 -700h-65zM596 107q0 -53 -28.5 -82.5t-80.5 -29.5
t-80.5 29.5t-28.5 82.5v34q0 68 43 92v2q-43 24 -43 88v14q0 53 28.5 82.5t80.5 29.5t80.5 -29.5t28.5 -82.5v-14q0 -64 -43 -88v-2q43 -24 43 -92v-34zM448 108q0 -50 39 -50t39 50v42q0 50 -39 50t-39 -50v-42zM448 335v-25q0 -47 39 -47t39 47v25q0 51 -39 51t-39 -51z
" />
    <glyph glyph-name="seveneighths" unicode="&#x215e;" horiz-adv-x="627" 
d="M35 700h210v-61l-103 -383h-70l102 381h-139v63zM113 0l276 700h65l-276 -700h-65zM596 107q0 -53 -28.5 -82.5t-80.5 -29.5t-80.5 29.5t-28.5 82.5v34q0 68 43 92v2q-43 24 -43 88v14q0 53 28.5 82.5t80.5 29.5t80.5 -29.5t28.5 -82.5v-14q0 -64 -43 -88v-2
q43 -24 43 -92v-34zM448 108q0 -50 39 -50t39 50v42q0 50 -39 50t-39 -50v-42zM448 335v-25q0 -47 39 -47t39 47v25q0 51 -39 51t-39 -51z" />
    <glyph glyph-name="minus" unicode="&#x2212;" 
d="M25 389h346v-78h-346v78z" />
    <glyph glyph-name="infinity" unicode="&#x221e;" horiz-adv-x="733" 
d="M345 317q-12 0 -23.5 12.5t-14.5 12.5t-11 -2t-14 -2q-8 0 -14.5 8t-6.5 17q0 22 8 35q-7 -7 -15.5 -36.5t-25.5 -41.5q-19 -11 -19 -40q0 -4 5.5 -12.5t11.5 -15.5l5 -6q0 -4 -3 -4q-7 0 -12 5q13 -68 48 -104h-55q-35 114 -35 226q0 105 40.5 171.5t135.5 66.5
q190 0 190 -254q0 -75 -25 -210h-73q53 47 62 117q-4 -8 -13 -8q-3 0 -3 2t2 3q9 6 12 11t4 23q-4 -6 -15 -6q-1 0 -10.5 -4.5t-15.5 -4.5q-14 0 -40 3.5t-70 3.5q-22 0 -52.5 -6t-38.5 -6q-5 0 -13 2t-11 2q-28 0 -28 12q0 10 37 18.5t74 8.5q5 0 12 -0.5t12 -0.5t15.5 2
t14.5 2q112 0 127 -20q-1 16 -14 29t-30 13q-6 0 -6 7v24q0 33 -16 34q4 -7 4 -17q0 -18 -11 -32t-27 -14q-4 0 -10 2l-7 2q-1 0 -14.5 -14t-27.5 -14zM733 291v-148q-22 48 -69 112.5t-67 64.5q3 -42 3 -49q0 -45 -15 -128h-42q16 104 16 199q0 319 -213 319
q-53 0 -91.5 -26.5t-59 -72.5t-30 -97.5t-9.5 -111.5q0 -123 29 -210h-47q-19 67 -19 184q-17 -9 -39.5 -43.5t-49 -84.5t-30.5 -56v148q11 27 33 54t50 53.5t30 28.5q3 72 27 135t75.5 107.5t120.5 44.5q67 0 115.5 -22.5t76.5 -64t42.5 -87t22.5 -105.5q22 -5 68 -48
t72 -96zM345 503q-3 3 -3 6q0 2 2 2q1 0 6 -4.5t15 -8.5t22 -4q16 0 29 4t20 8l6 5q4 0 4 -2l-8 -8q24 0 52 -11q-29 80 -139 80q-55 0 -92 -33t-50 -85q37 20 41 39q-6 4 -6 7q0 4 3 4l2 -2q2 -1 6.5 -3.5t10 -5t13.5 -4t17 -1.5q24 0 49 17zM371 430q0 10 -4.5 28t-9.5 18
q-10 0 -19 -39t-14 -39q-3 0 -9.5 3t-11.5 3q-13 0 -21 -10.5t-8 -24.5q0 -12 11 -14q11 0 18 6.5t9 6.5t12 -13.5t20 -13.5q14 0 25 10.5t12 10.5q3 0 10 -3.5t9 -3.5q10 0 18 11t8 24q0 10 -6 18t-16 8q-7 0 -14.5 -6.5t-11.5 -6.5q-7 0 -7 13v14zM507 397q-9 67 -9 68
l-5 3q0 -21 -18 -32t-41 -11q-21 0 -37 12.5t-16 29.5q0 1 1 4t1 5q-12 2 -15 4q6 -9 10 -24t5.5 -24t4.5 -9q7 2 15 2q19 0 31 -14q34 0 34 -51q0 -3 8 -7t18.5 -13t15.5 -22q0 1 -3 79zM383 310q-1 0 -8 -1t-15.5 -2t-13.5 -1t-13 1.5t-11 1.5q-15 0 -36 -4t-35 -9t-14 -8
q0 -10 20 -10q24 0 54 6.5t44 6.5q19 0 57.5 -3.5t52.5 -3.5q5 0 9.5 2t7.5 4t3 3q0 5 -36 11t-66 6zM267 413q-18 0 -31 10t-15 21q-4 -2 -15 -5q-4 -16 -4 -43q0 -50 3 -78q4 6 22 22t20 31q5 37 38 41q12 5 23 5q5 0 8.5 8.5t9.5 24.5t16 28l-13 -4q-1 -24 -18.5 -42.5
t-43.5 -18.5zM419 465q-13 0 -16 13q-5 0 -8.5 -5.5t-3.5 -9.5q0 -10 15 -17t31 -7q14 0 29 8.5t15 21.5q0 8 -14.5 12.5t-28.5 4.5q-5 -21 -19 -21zM267 427q14 0 30 11t16 24q0 6 -1 9h-9q-11 0 -18 1q-5 -14 -18 -14q-10 0 -15 5q-4 -4 -18 -12q4 -24 33 -24zM266 288
q-2 0 -2 3q0 12 107 12q93 0 93 -8q0 -3 -3 -3q-35 5 -88 5q-63 0 -107 -9zM305 262q0 10 63 10q31 0 31 -8q0 -3 -2 -3q-4 0 -10 2t-10 2q-11 0 -26 -0.5t-20 -0.5q-4 0 -11.5 -3t-10.5 -3q-4 0 -4 4zM417 473q9 0 9 10v3q-1 0 -16 -6q0 -7 7 -7zM266 466q7 0 10 9
q-6 1 -11 4q0 -4 -6 -10q1 -3 7 -3zM323 34l-5 48l-8 -82h-21l14 125h25l5 -60l19 60h26l-13 -125h-21l8 82l-15 -48h-14zM65 22q-1 -22 -21 -22h-37l12 125h37q20 0 18 -21zM280 44q-1 -12 -10 -17l8 -27h-21l-7 23h-6l-3 -23h-23l13 125h37q20 0 18 -21zM182 0l4 23h-14
l-3 -23h-21l11 104q1 21 22 21h17q20 0 18 -21l-11 -104h-23zM414 0l3 23h-13l-3 -23h-23l11 104q1 21 24 21h15q22 0 20 -21l-13 -104h-21zM590 0l15 125h35q22 0 20 -21l-6 -60q-2 -21 -24 -21h-14l-3 -23h-23zM112 0l3 23h-13l-3 -23h-23l15 125h21l-9 -83h13l9 83h23
l-14 -125h-22zM533 125h23l-9 -79q0 -4 4 -4h5q5 0 5 4l8 79h21l-8 -81q-1 -19 -19 -21l-9 -23h-23l9 23q-16 2 -15 21zM509 106l-11 -106h-23l11 106h-13l2 19h49l-2 -19h-13zM52 102q1 4 -3 4h-9l-10 -88h11q3 0 3 4zM636 102q1 4 -3 4h-9l-7 -64h9q5 0 5 4zM173 42h14
l7 60q0 4 -3 4h-6q-6 0 -6 -4zM264 102q0 4 -3 4h-9l-7 -64h9q5 0 5 4zM405 42h13l6 60q0 4 -3 4h-5q-5 0 -5 -4zM711 57l-2 -18h-22l-2 -21h28l-2 -18h-49l13 125h49l-2 -19h-28l-5 -49h22z" />
    <glyph glyph-name="approxequal" unicode="&#x2248;" 
d="M60 199l-52 50q33 49 60.5 69.5t58.5 20.5q30 0 80 -33q42 -28 63 -28q16 0 28 10.5t38 46.5l52 -54q-32 -47 -59 -66.5t-60 -19.5q-30 0 -80 33q-42 28 -63 28q-16 0 -29 -11.5t-37 -45.5zM60 365l-52 50q33 49 60.5 69.5t58.5 20.5q30 0 80 -33q42 -28 63 -28
q16 0 28 10.5t38 46.5l52 -54q-32 -47 -59 -66.5t-60 -19.5q-30 0 -80 33q-42 28 -63 28q-16 0 -29 -11.5t-37 -45.5z" />
    <glyph glyph-name="commaaccent" horiz-adv-x="250" 
d="M115 -125h-36v92h92v-82l-43 -64h-39z" />
    <glyph glyph-name="zero.alt" 
d="M141 539v-378q0 -69 57 -69t57 69v378q0 69 -57 69t-57 -69zM31 168v364q0 84 43 130t124 46t124 -46t43 -130v-364q0 -84 -43 -130t-124 -46t-124 46t-43 130z" />
    <glyph glyph-name="one.alt" horiz-adv-x="250" 
d="M15 534v78q40 0 65.5 13.5t35 29.5t20.5 45h74v-700h-110v534h-85z" />
    <glyph glyph-name="two.alt" horiz-adv-x="369" 
d="M244 528q0 45 -14.5 62.5t-42.5 17.5q-57 0 -57 -69v-75h-104v68q0 85 42 130.5t122 45.5t122 -45.5t42 -130.5q0 -71 -30.5 -133.5t-105.5 -143.5q-48 -52 -65.5 -82t-17.5 -58q0 -10 1 -15h208v-100h-318v86q0 59 24.5 109t85.5 114q62 65 85 113t23 106z" />
    <glyph glyph-name="three.alt" horiz-adv-x="382" 
d="M245 489v39q0 45 -14.5 62.5t-42.5 17.5q-57 0 -57 -69v-45h-104v38q0 85 42 130.5t122 45.5t122 -45.5t42 -130.5v-18q0 -111 -77 -143v-2q77 -34 77 -146v-55q0 -85 -42 -130.5t-122 -45.5t-122 45.5t-42 130.5v58h104v-65q0 -69 57 -69q28 0 42.5 17.5t14.5 61.5v55
q0 48 -17 68.5t-55 20.5h-37v100h43q33 0 49.5 17t16.5 57z" />
    <glyph glyph-name="four.alt" horiz-adv-x="397" 
d="M14 127v100l200 473h120v-473h52v-100h-52v-127h-110v127h-210zM115 227h109v259h-2z" />
    <glyph glyph-name="five.alt" horiz-adv-x="383" 
d="M28 226h104v-65q0 -68 57 -68t57 68v154q0 69 -57 69t-57 -69v-21h-104l20 406h290v-100h-192l-9 -167h2q31 51 95 51q122 0 122 -160v-156q0 -85 -42 -130.5t-122 -45.5t-122 45.5t-42 130.5v58z" />
    <glyph glyph-name="six.alt" horiz-adv-x="392" 
d="M31 167v358q0 182 168 182q80 0 122 -45.5t42 -130.5v-18h-104v25q0 69 -57 69q-31 0 -46 -19t-15 -67v-127h2q29 61 100 61q122 0 122 -160v-128q0 -84 -43 -130t-124 -46t-124 46t-43 130zM198 355q-57 0 -57 -69v-126q0 -68 57 -68t57 68v126q0 69 -57 69z" />
    <glyph glyph-name="seven.alt" horiz-adv-x="340" 
d="M10 700h320v-96l-152 -604h-110l152 604v-4h-210v100z" />
    <glyph glyph-name="eight.alt" horiz-adv-x="398" 
d="M371 168q0 -84 -44.5 -130t-127.5 -46t-127.5 46t-44.5 130v55q0 107 68 145v2q-68 37 -68 140v22q0 84 44.5 130t127.5 46t127.5 -46t44.5 -130v-22q0 -102 -68 -140v-2q68 -38 68 -145v-55zM137 171q0 -79 62 -79q61 0 62 79v65q0 79 -62 79t-62 -79v-65zM137 528v-39
q0 -74 62 -74t62 74v39q0 80 -62 80t-62 -80z" />
    <glyph glyph-name="nine.alt" horiz-adv-x="392" 
d="M361 532v-358q0 -182 -168 -182q-80 0 -122 45.5t-42 130.5v18h104v-25q0 -69 57 -69q31 0 46 19t15 67v127h-2q-29 -61 -100 -61q-122 0 -122 160v128q0 84 43 130t124 46t124 -46t43 -130zM194 344q57 0 57 69v126q0 68 -57 68t-57 -68v-126q0 -69 57 -69z" />
    </font>
</defs>
</svg>
